<?xml version="1.0" standalone="no"?>
<!DOCTYPE svg PUBLIC "-//W3C//DTD SVG 1.1//EN" "http://www.w3.org/Graphics/SVG/1.1/DTD/svg11.dtd" >
<svg xmlns="http://www.w3.org/2000/svg">
<metadata>
<json>
{
	"fontFamily": "icomoon",
	"majorVersion": 1,
	"minorVersion": 0,
	"version": "Version 1.0",
	"fontId": "icomoon",
	"psName": "icomoon",
	"subFamily": "Regular",
	"fullName": "icomoon",
	"description": "Font generated by IcoMoon."
}
</json>
</metadata>
<defs>
<font id="icomoon" horiz-adv-x="1024">
<font-face units-per-em="1024" ascent="960" descent="-64" />
<missing-glyph horiz-adv-x="1024" />
<glyph unicode="&#x20;" d="" horiz-adv-x="512" />
<glyph unicode="&#xe600;" d="M512 960c-282.32 0-512-229.68-512-512 0-107.392 32.896-210.192 95.12-297.296l70.464-70.704h-133.584v-32h176l16 16v176h-32v-141.248l-71.616 71.616c-57.824 81.424-88.384 177.392-88.384 277.632 0 264.672 215.328 480 480 480 10.4 0 20.752-0.336 30.992-0.992l2.032 31.936c-10.928 0.704-21.936 1.056-33.024 1.056zM849.328 833.184l-21.088-24.064c15.728-13.792 30.688-28.72 44.432-44.384l24.032 21.104c-14.656 16.72-30.592 32.64-47.376 47.344zM997.12 283.872l-30.32 10.256c-6.704-19.808-14.784-39.344-24-58.032l28.688-14.16c9.856 19.936 18.48 40.768 25.632 61.936zM768.432 4.752c19.232 11.136 37.936 23.68 55.632 37.296l-19.536 25.36c-16.576-12.768-34.112-24.528-52.128-34.976l16.032-27.68zM751.68 863.968c18.064-10.448 35.648-22.192 52.224-34.912l19.472 25.392c-17.664 13.568-36.4 26.096-55.68 37.232l-16.016-27.712zM990.96 479.856c0.704-10.48 1.040-21.2 1.040-31.856 0-10.384-0.336-20.704-0.992-30.944l31.936-2.032c0.704 10.912 1.056 21.904 1.056 32.976 0 11.36-0.368 22.784-1.104 33.968l-31.936-2.112zM677.072-36.8c21.040 7.168 41.872 15.808 61.856 25.712l-14.192 28.672c-18.752-9.28-38.256-17.376-57.984-24.096l10.32-30.288zM579.296-59.616c22.128 2.912 44.24 7.312 65.696 13.072l-8.288 30.912c-20.128-5.392-40.848-9.52-61.584-12.24l4.176-31.744zM574.272 924c20.72-2.688 41.456-6.768 61.632-12.128l8.224 30.928c-21.52 5.728-43.632 10.080-65.712 12.944l-4.144-31.744zM1006.544 581.008l-30.912-8.304c5.408-20.128 9.536-40.848 12.256-61.568l31.712 4.16c-2.88 22.112-7.28 44.224-13.056 65.712zM828.8 87.36l21.12-24.032c16.72 14.704 32.624 30.656 47.296 47.392l-24.064 21.088c-13.76-15.696-28.688-30.656-44.352-44.448zM1019.728 381.664l-31.744 4.112c-2.688-20.768-6.768-41.488-12.128-61.6l30.944-8.24c5.696 21.472 10.064 43.584 12.928 65.728zM892.64 740.48c12.768-16.592 24.512-34.128 34.944-52.128l27.68 16.016c-11.104 19.216-23.664 37.936-37.28 55.632l-25.344-19.52zM942.416 660.688c9.248-18.688 17.36-38.176 24.096-57.92l30.288 10.32c-7.168 21.072-15.808 41.872-25.68 61.808l-28.704-14.208zM665.92 902.784c19.76-6.688 39.296-14.768 58.048-24l14.16 28.704c-20.016 9.856-40.864 18.48-61.952 25.616l-10.256-30.32zM955.696 192.336l-27.712 16c-10.432-18.080-22.192-35.664-34.896-52.24l25.408-19.472c13.552 17.696 26.064 36.432 37.2 55.712zM512-32v-32c11.088 0 22.096 0.352 33.008 1.040l-2.032 31.936c-10.224-0.64-20.576-0.976-30.976-0.976z" data-tags="arrows_anticlockwise_dashed" />
<glyph unicode="&#xe601;" d="M512 960c-282.32 0-512-229.68-512-512 0-107.392 32.896-210.192 95.12-297.296l70.464-70.704h-133.584v-32h176l16 16v176h-32v-141.248l-71.616 71.632c-57.824 81.408-88.384 177.36-88.384 277.616 0 264.672 215.328 480 480 480s480-215.328 480-480-215.328-480-480-480v-32c282.32 0 512 229.68 512 512s-229.68 512-512 512z" data-tags="arrows_anticlockwise" />
<glyph unicode="&#xe602;" d="M512 960c-149.984 0-272-122.016-272-272v-480c0-149.984 122.016-272 272-272s272 122.016 272 272v480c0 149.984-122.016 272-272 272zM752 208c0-132.336-107.664-240-240-240s-240 107.664-240 240v480c0 132.336 107.664 240 240 240s240-107.664 240-240v-480zM512 416c-114.688 0-208-93.312-208-208s93.312-208 208-208 208 93.312 208 208-93.312 208-208 208zM512 32c-97.040 0-176 78.96-176 176s78.96 176 176 176 176-78.96 176-176-78.96-176-176-176z" data-tags="arrows_button_down" />
<glyph unicode="&#xe603;" d="M752 720h-480c-149.984 0-272-122.016-272-272s122.016-272 272-272h480c149.984 0 272 122.016 272 272s-122.016 272-272 272zM752 208h-480c-132.336 0-240 107.664-240 240s107.664 240 240 240h480c132.336 0 240-107.664 240-240s-107.664-240-240-240zM272 656c-114.688 0-208-93.312-208-208s93.312-208 208-208 208 93.312 208 208-93.312 208-208 208zM272 272c-97.040 0-176 78.96-176 176s78.96 176 176 176 176-78.96 176-176-78.96-176-176-176z" data-tags="arrows_button_off" />
<glyph unicode="&#xe604;" d="M752 720h-480c-149.984 0-272-122.016-272-272s122.016-272 272-272h480c149.984 0 272 122.016 272 272s-122.016 272-272 272zM752 208h-480c-132.336 0-240 107.664-240 240s107.664 240 240 240h480c132.336 0 240-107.664 240-240s-107.664-240-240-240zM752 656c-114.688 0-208-93.312-208-208s93.312-208 208-208 208 93.312 208 208-93.312 208-208 208zM752 272c-97.040 0-176 78.96-176 176s78.96 176 176 176 176-78.96 176-176-78.96-176-176-176z" data-tags="arrows_button_on" />
<glyph unicode="&#xe605;" d="M784 208v480c0 149.984-122.016 272-272 272s-272-122.016-272-272v-480c0-149.984 122.016-272 272-272s272 122.016 272 272zM512-32c-132.336 0-240 107.664-240 240v480c0 132.336 107.664 240 240 240s240-107.664 240-240v-480c0-132.336-107.664-240-240-240zM512 896c-114.688 0-208-93.312-208-208s93.312-208 208-208 208 93.312 208 208-93.312 208-208 208zM512 512c-97.040 0-176 78.96-176 176s78.96 176 176 176 176-78.96 176-176-78.96-176-176-176z" data-tags="arrows_button_up" />
<glyph unicode="&#xe606;" d="M219.312 443.312l-22.624-24.976 192-194.336h22.624l384 386.336-22.624 23.808-372.688-372.112z" data-tags="arrows_check" />
<glyph unicode="&#xe607;" d="M411.312 224l384 386.336-22.624 23.808-372.688-372.112-180.688 180.976-22.624-24.816 192-194.192zM511.984-64c0 0 0.016 0 0.032 0 136.768 0 265.328 53.28 362.032 149.968s149.952 225.28 149.936 362.048c0 136.768-53.248 265.344-149.952 362.032-96.688 96.688-225.248 149.952-362.016 149.952-0.016 0-0.016 0-0.032 0-136.768 0-265.328-53.264-362.032-149.968-96.688-96.704-149.952-225.28-149.936-362.048 0-136.768 53.248-265.344 149.952-362.032 96.688-96.688 225.248-149.952 362.016-149.952zM172.592 787.408c90.64 90.656 211.184 140.592 339.424 140.592 0.016 0 0.016 0 0.032 0 128.192 0 248.72-49.936 339.376-140.576 90.656-90.656 140.576-211.2 140.56-339.408 0-128.224-49.92-248.768-140.56-339.424s-211.184-140.592-339.408-140.592h-0.032c-0.016 0-0.016 0-0.032 0-128.192 0-248.72 49.936-339.376 140.576-90.64 90.656-140.576 211.184-140.56 339.408-0.016 128.224 49.92 248.768 140.576 339.424z" data-tags="arrows_circle_check" />
<glyph unicode="&#xe608;" d="M523.312 288l272 274.336-22.624 23.808-260.688-260.112-260.688 260.976-22.624-24.816 272-274.192zM511.984-64c0 0 0.016 0 0.032 0 136.768 0 265.328 53.28 362.032 149.968s149.952 225.28 149.936 362.048c0 136.768-53.248 265.344-149.952 362.032-96.688 96.688-225.248 149.952-362.016 149.952-0.016 0-0.016 0-0.032 0-136.768 0-265.328-53.264-362.032-149.968-96.688-96.704-149.952-225.28-149.936-362.048 0-136.768 53.248-265.344 149.952-362.032 96.688-96.688 225.248-149.952 362.016-149.952zM172.592 787.408c90.64 90.656 211.184 140.592 339.424 140.592 0.016 0 0.016 0 0.032 0 128.192 0 248.72-49.936 339.376-140.576 90.656-90.656 140.576-211.2 140.56-339.408 0-128.224-49.92-248.768-140.56-339.424s-211.184-140.592-339.408-140.592h-0.032c-0.016 0-0.016 0-0.032 0-128.192 0-248.72 49.936-339.376 140.576-90.64 90.656-140.576 211.184-140.56 339.408-0.016 128.224 49.92 248.768 140.576 339.424z" data-tags="arrows_circle_down" />
<glyph unicode="&#xe609;" d="M511.984-64c0 0 0.016 0 0.032 0 136.768 0 265.328 53.28 362.032 149.968s149.952 225.28 149.936 362.048c0 136.768-53.248 265.344-149.952 362.032-96.688 96.688-225.248 149.952-362.016 149.952-0.016 0-0.016 0-0.032 0-136.768 0-265.328-53.264-362.032-149.968-96.688-96.704-149.952-225.28-149.936-362.048 0-136.768 53.248-265.344 149.952-362.032 96.688-96.688 225.248-149.952 362.016-149.952zM172.592 787.408c90.64 90.656 211.184 140.592 339.424 140.592 0.016 0 0.016 0 0.032 0 128.192 0 248.72-49.936 339.376-140.576 90.656-90.656 140.576-211.2 140.56-339.408 0-128.224-49.92-248.768-140.56-339.424s-211.184-140.592-339.408-140.592h-0.032c-0.016 0-0.016 0-0.032 0-128.192 0-248.72 49.936-339.376 140.576-90.64 90.656-140.576 211.184-140.56 339.408-0.016 128.224 49.92 248.768 140.576 339.424zM752 288v32h-368v368h-32v-384l16-16z" data-tags="arrows_circle_downleft" />
<glyph unicode="&#xe60a;" d="M512.016-64c0 0 0.016 0 0.032 0 136.752 0 265.312 53.264 362 149.968 96.688 96.688 149.936 225.28 149.936 362.016 0 136.784-53.248 265.36-149.952 362.064-96.688 96.688-225.264 149.952-362.048 149.952 0 0-0.016 0-0.032 0-136.752 0-265.312-53.264-362-149.968-96.688-96.688-149.952-225.264-149.936-362.016 0-136.784 53.248-265.36 149.952-362.064 96.688-96.688 225.264-149.952 362.048-149.952zM172.576 787.408c90.656 90.656 211.184 140.592 339.408 140.592 0.016 0 0.016 0 0.032 0 128.208 0 248.752-49.936 339.392-140.576 90.656-90.656 140.576-211.2 140.576-339.44 0-128.208-49.92-248.736-140.56-339.392s-211.168-140.592-339.376-140.592h-0.032c-0.016 0-0.016 0-0.032 0-128.208 0-248.752 49.936-339.392 140.576-90.656 90.656-140.592 211.216-140.576 339.44-0.016 128.208 49.92 248.752 140.56 339.392zM672 304v384h-32v-368h-368v-32h384z" data-tags="arrows_circle_downright" />
<glyph unicode="&#xe60b;" d="M445.664 164.688l274.336 272v22.624l-274.336 272-23.808-22.624 260.112-260.688-259.808-260.688zM511.984-64c0 0 0.016 0 0.032 0 136.768 0 265.328 53.28 362.032 149.968s149.952 225.28 149.936 362.048c0 136.768-53.248 265.344-149.952 362.032-96.688 96.688-225.248 149.952-362.016 149.952-0.016 0-0.016 0-0.032 0-136.768 0-265.328-53.264-362.032-149.968-96.688-96.704-149.952-225.28-149.936-362.048 0-136.768 53.248-265.344 149.952-362.032 96.688-96.688 225.248-149.952 362.016-149.952zM172.592 787.408c90.64 90.656 211.184 140.592 339.424 140.592 0.016 0 0.016 0 0.032 0 128.192 0 248.72-49.936 339.376-140.576 90.656-90.656 140.576-211.2 140.56-339.408 0-128.224-49.92-248.768-140.56-339.424s-211.184-140.592-339.408-140.592h-0.032c-0.016 0-0.016 0-0.032 0-128.192 0-248.72 49.936-339.376 140.576-90.64 90.656-140.576 211.184-140.56 339.408-0.016 128.224 49.92 248.768 140.576 339.424z" data-tags="arrows_circle_left" />
<glyph unicode="&#xe60c;" d="M224 480h576v-32h-576v32zM511.984-64c0.016 0 0.016 0 0.032 0 136.768 0 265.344 53.28 362.032 149.968 96.704 96.688 149.936 225.28 149.936 362.048s-53.248 265.344-149.936 362.032c-96.704 96.688-225.264 149.952-362.032 149.952 0 0-0.016 0-0.032 0-136.768 0-265.344-53.264-362.032-149.968-96.704-96.704-149.936-225.296-149.936-362.048s53.248-265.344 149.936-362.032c96.704-96.688 225.264-149.952 362.032-149.952zM172.576 787.408c90.656 90.656 211.2 140.592 339.44 140.592 0.016 0 0.016 0 0.032 0 128.192 0 248.736-49.936 339.376-140.576 90.656-90.656 140.56-211.2 140.56-339.408s-49.904-248.768-140.56-339.424-211.184-140.592-339.408-140.592h-0.032c-0.016 0-0.016 0-0.032 0-128.192 0-248.736 49.936-339.376 140.576-90.656 90.656-140.56 211.2-140.56 339.408 0 128.224 49.904 248.768 140.56 339.424z" data-tags="arrows_circle_minus" />
<glyph unicode="&#xe60d;" d="M496 160h32v272h272v32h-272v272h-32v-272h-272v-32h272zM511.984-64c0.016 0 0.016 0 0.032 0 136.768 0 265.344 53.28 362.032 149.968 96.704 96.688 149.936 225.28 149.936 362.048s-53.248 265.344-149.936 362.032c-96.704 96.688-225.264 149.952-362.032 149.952 0 0-0.016 0-0.032 0-136.768 0-265.344-53.264-362.032-149.968-96.704-96.704-149.936-225.296-149.936-362.048s53.248-265.344 149.936-362.032c96.704-96.688 225.264-149.952 362.032-149.952zM172.576 787.408c90.656 90.656 211.2 140.592 339.44 140.592 0.016 0 0.016 0 0.032 0 128.192 0 248.736-49.936 339.376-140.576 90.656-90.656 140.56-211.2 140.56-339.408s-49.904-248.768-140.56-339.424-211.184-140.592-339.408-140.592h-0.032c-0.016 0-0.016 0-0.032 0-128.192 0-248.736 49.936-339.376 140.576-90.656 90.656-140.56 211.2-140.56 339.408 0 128.224 49.904 248.768 140.56 339.424z" data-tags="arrows_circle_plus" />
<glyph unicode="&#xe60e;" d="M293.36 280.816l22.72-22.544 195.952 197.424 197.424-195.952 22.528 22.72-197.424 195.936 195.952 197.44-22.72 22.544-195.952-197.424-197.424 195.952-22.528-22.72 197.424-195.936zM511.984-64c0.016 0 0.016 0 0.032 0 136.768 0 265.344 53.28 362.032 149.968 96.704 96.688 149.936 225.28 149.936 362.048s-53.248 265.344-149.936 362.032c-96.704 96.688-225.264 149.952-362.032 149.952 0 0-0.016 0-0.032 0-136.768 0-265.344-53.264-362.032-149.968-96.704-96.704-149.936-225.296-149.936-362.048s53.248-265.344 149.936-362.032c96.704-96.688 225.264-149.952 362.032-149.952zM172.576 787.408c90.656 90.656 211.2 140.592 339.44 140.592 0.016 0 0.016 0 0.032 0 128.192 0 248.736-49.936 339.376-140.576 90.656-90.656 140.56-211.2 140.56-339.408s-49.904-248.768-140.56-339.424-211.184-140.592-339.408-140.592h-0.032c-0.016 0-0.016 0-0.032 0-128.192 0-248.736 49.936-339.376 140.576-90.656 90.656-140.56 211.2-140.56 339.408 0 128.224 49.904 248.768 140.56 339.424z" data-tags="arrows_circle_remove" />
<glyph unicode="&#xe60f;" d="M603.312 187.312l-260.688 260.688 260.688 260.688-24.976 22.624-274.336-272v-22.624l274.336-272zM511.984-64c0 0 0.016 0 0.032 0 136.768 0 265.328 53.28 362.032 149.968s149.952 225.28 149.936 362.048c0 136.768-53.248 265.344-149.952 362.032-96.688 96.688-225.248 149.952-362.016 149.952-0.016 0-0.016 0-0.032 0-136.768 0-265.328-53.264-362.032-149.968-96.688-96.704-149.952-225.28-149.936-362.048 0-136.768 53.248-265.344 149.952-362.032 96.688-96.688 225.248-149.952 362.016-149.952zM172.592 787.408c90.64 90.656 211.184 140.592 339.424 140.592 0.016 0 0.016 0 0.032 0 128.192 0 248.72-49.936 339.376-140.576 90.656-90.656 140.576-211.2 140.56-339.408 0-128.224-49.92-248.768-140.56-339.424s-211.184-140.592-339.408-140.592h-0.032c-0.016 0-0.016 0-0.032 0-128.192 0-248.72 49.936-339.376 140.576-90.64 90.656-140.576 211.184-140.56 339.408-0.016 128.224 49.92 248.768 140.576 339.424z" data-tags="arrows_circle_right" />
<glyph unicode="&#xe610;" d="M512 569.376l260.688-260.688 22.624 24.976-272 274.336h-22.624l-272-274.336 22.624-23.808zM511.984-64c0 0 0.016 0 0.032 0 136.768 0 265.328 53.28 362.032 149.968s149.952 225.28 149.936 362.048c0 136.768-53.248 265.344-149.952 362.032-96.688 96.688-225.248 149.952-362.016 149.952-0.016 0-0.016 0-0.032 0-136.768 0-265.328-53.264-362.032-149.968-96.688-96.704-149.952-225.28-149.936-362.048 0-136.768 53.248-265.344 149.952-362.032 96.688-96.688 225.248-149.952 362.016-149.952zM172.592 787.408c90.64 90.656 211.184 140.592 339.424 140.592 0.016 0 0.016 0 0.032 0 128.192 0 248.72-49.936 339.376-140.576 90.656-90.656 140.576-211.2 140.56-339.408 0-128.224-49.92-248.768-140.56-339.424s-211.184-140.592-339.408-140.592h-0.032c-0.016 0-0.016 0-0.032 0-128.192 0-248.72 49.936-339.376 140.576-90.64 90.656-140.576 211.184-140.56 339.408-0.016 128.224 49.92 248.768 140.576 339.424z" data-tags="arrows_circle_up" />
<glyph unicode="&#xe611;" d="M512.016-64c0 0 0.016 0 0.032 0 136.752 0 265.312 53.264 362 149.968 96.688 96.688 149.936 225.28 149.936 362.016 0 136.784-53.248 265.36-149.952 362.064-96.688 96.688-225.264 149.952-362.048 149.952 0 0-0.016 0-0.032 0-136.752 0-265.312-53.264-362-149.968-96.688-96.688-149.952-225.264-149.936-362.016 0-136.784 53.248-265.36 149.952-362.064 96.688-96.688 225.264-149.952 362.048-149.952zM172.576 787.408c90.656 90.656 211.184 140.592 339.408 140.592 0.016 0 0.016 0 0.032 0 128.208 0 248.752-49.936 339.392-140.576 90.656-90.656 140.576-211.2 140.576-339.44 0-128.208-49.92-248.736-140.56-339.392-90.656-90.656-211.168-140.592-339.376-140.592h-0.032c-0.016 0-0.016 0-0.032 0-128.208 0-248.752 49.936-339.392 140.576-90.656 90.656-140.592 211.216-140.576 339.44-0.016 128.208 49.92 248.752 140.56 339.392zM384 576h368v32h-400v-400h32z" data-tags="arrows_circle_upleft" />
<glyph unicode="&#xe612;" d="M511.984-64c0 0 0.016 0 0.032 0 136.768 0 265.328 53.28 362.032 149.968s149.952 225.28 149.936 362.048c0 136.768-53.248 265.344-149.952 362.032-96.688 96.688-225.248 149.952-362.016 149.952-0.016 0-0.016 0-0.032 0-136.768 0-265.328-53.264-362.032-149.968-96.688-96.704-149.952-225.28-149.936-362.048 0-136.768 53.248-265.344 149.952-362.032 96.688-96.688 225.248-149.952 362.016-149.952zM172.592 787.408c90.64 90.656 211.184 140.592 339.424 140.592 0.016 0 0.016 0 0.032 0 128.192 0 248.72-49.936 339.376-140.576 90.656-90.656 140.576-211.2 140.56-339.408 0-128.224-49.92-248.768-140.56-339.424s-211.184-140.592-339.408-140.592h-0.032c-0.016 0-0.016 0-0.032 0-128.192 0-248.72 49.936-339.376 140.576-90.64 90.656-140.576 211.184-140.56 339.408-0.016 128.224 49.92 248.768 140.576 339.424zM640 208h32v384l-16 16h-384v-32h368z" data-tags="arrows_circle_upright" />
<glyph unicode="&#xe613;" d="M130.912 156.112c-12.704 16.576-24.448 34.144-34.896 52.24l-27.712-16c11.136-19.296 23.664-38.032 37.2-55.696l25.408 19.456zM68.736 704.368l27.68-16.016c10.416 18 22.176 35.536 34.944 52.128l-25.344 19.52c-13.632-17.696-26.176-36.416-37.28-55.632zM0 448c0-11.072 0.352-22.064 1.040-32.976l31.936 2.032c-0.64 10.24-0.976 20.56-0.976 30.944 0 10.656 0.336 21.376 1.040 31.856l-31.936 2.112c-0.736-11.184-1.104-22.608-1.104-33.968zM4.272 381.664c2.88-22.16 7.232-44.272 12.944-65.728l30.944 8.24c-5.36 20.112-9.44 40.832-12.128 61.6l-31.76-4.112zM4.384 515.312l31.712-4.16c2.72 20.704 6.848 41.424 12.256 61.568l-30.912 8.304c-5.76-21.504-10.16-43.616-13.056-65.712zM27.2 613.072l30.288-10.32c6.736 19.744 14.848 39.232 24.096 57.92l-28.688 14.208c-9.888-19.92-18.528-40.72-25.696-61.808zM81.184 236.080c-9.216 18.688-17.296 38.224-24 58.032l-30.304-10.24c7.152-21.152 15.776-42 25.632-61.952l28.672 14.16zM358.080 902.784l-10.256 30.32c-21.088-7.136-41.936-15.76-61.952-25.616l14.16-28.704c18.752 9.232 38.288 17.312 58.048 24zM255.568 4.752l16.032 27.68c-18.016 10.432-35.552 22.208-52.128 34.976l-19.536-25.36c17.696-13.616 36.4-26.16 55.632-37.296zM444.704-59.616l4.16 31.728c-20.736 2.72-41.456 6.848-61.584 12.24l-8.288-30.912c21.472-5.744 43.584-10.144 65.712-13.056zM346.928-36.8l10.32 30.304c-19.728 6.704-39.232 14.816-57.984 24.096l-14.192-28.672c19.968-9.92 40.8-18.576 61.856-25.728zM272.32 863.968l-16 27.696c-19.28-11.136-38.016-23.664-55.68-37.232l19.472-25.392c16.56 12.736 34.144 24.48 52.208 34.928zM449.728 924l-4.128 31.728c-22.096-2.864-44.208-7.216-65.712-12.944l8.224-30.928c20.176 5.376 40.896 9.456 61.616 12.144zM174.672 833.184c-16.784-14.704-32.72-30.624-47.376-47.328l24.032-21.104c13.744 15.664 28.704 30.592 44.432 44.384l-21.088 24.048zM174.080 63.328l21.12 24.032c-15.664 13.792-30.592 28.736-44.352 44.448l-24.064-21.088c14.672-16.736 30.576-32.688 47.296-47.392zM512-32c-10.4 0-20.752 0.336-30.992 0.992l-2.032-31.936c10.928-0.704 21.936-1.056 33.024-1.056v32zM512 960c-11.088 0-22.096-0.352-33.008-1.040l2.032-31.936c10.224 0.64 20.576 0.976 30.976 0.976 264.672 0 480-215.328 480-480 0-100.24-30.56-196.208-88.384-277.632l-71.616-71.616v141.248h-32v-176l16-16h176v32h-133.504l68.672 68.688 1.696 2.016c62.24 87.104 95.136 189.904 95.136 297.296 0 282.32-229.68 512-512 512z" data-tags="arrows_clockwise_dashed" />
<glyph unicode="&#xe614;" d="M512 960c-282.32 0-512-229.68-512-512s229.68-512 512-512v32c-264.672 0-480 215.328-480 480s215.328 480 480 480 480-215.328 480-480c0-100.256-30.56-196.208-88.384-277.632l-71.616-71.616v141.248h-32v-176l16-16h176v32h-133.504l68.672 68.688 1.696 2.016c62.24 87.104 95.136 189.904 95.136 297.296 0 282.32-229.68 512-512 512z" data-tags="arrows_clockwise" />
<glyph unicode="&#xe615;" d="M763.312 548.688l-24.976 22.624-114.336-112v-22.624l114.336-112 23.808 22.624-83.52 84.688h345.376v32h-345.376zM260.688 347.312l24.976-22.624 114.336 112v22.624l-114.336 112-23.808-22.624 83.52-84.688h-345.376v-32h345.376zM500.688 336l-112-114.336 22.624-23.808 84.688 83.52v-345.376h32v345.376l84.688-84.688 22.624 24.976-112 114.336zM496 960v-345.376l-84.688 84.688-22.624-24.976 112-114.336h22.624l112 114.336-22.624 23.808-84.688-83.52v345.376z" data-tags="arrows_compress" />
<glyph unicode="&#xe616;" d="M512 960c-136.752 0-265.312-53.264-362.016-149.968-96.72-96.704-149.984-225.28-149.984-362.032s53.264-265.328 149.984-362.032c96.704-96.704 225.264-149.968 362.016-149.968s265.312 53.264 362.016 149.984c96.72 96.688 149.984 225.264 149.984 362.016s-53.264 265.328-149.984 362.032c-96.704 96.704-225.264 149.968-362.016 149.968zM172.608 108.592c-90.672 90.672-140.608 211.2-140.608 339.408 0 122.848 45.952 238.576 129.568 327.808l678.256-678.256c-89.232-83.6-204.96-129.552-327.824-129.552-128.208 0-248.736 49.92-339.392 140.592zM862.432 120.192l-678.24 678.24c89.216 83.616 204.944 129.568 327.808 129.568 128.208 0 248.736-49.936 339.392-140.608 90.672-90.656 140.608-211.184 140.608-339.392 0-122.848-45.952-238.576-129.568-327.808z" data-tags="arrows_deny" />
<glyph unicode="&#xe617;" d="M832 960v-32h137.376l-937.376-937.376v137.376h-32v-176l16-16h176v32h-137.376l937.376 937.376v-137.376h32v176l-16 16z" data-tags="arrows_diagonal" />
<glyph unicode="&#xe618;" d="M992-9.376l-937.376 937.376h137.376v32h-176l-16-16v-176h32v137.376l937.376-937.376h-137.376v-32h176l16 16v176h-32z" data-tags="arrows_diagonal2" />
<glyph unicode="&#xe619;" d="M510.976 214.64l-260.688 260.688-22.624-24.992 272-274.336h22.624l272 274.336-22.624 23.808zM510.976 454.64l-260.688 260.688-22.624-24.992 272-274.336h22.624l272 274.336-22.624 23.808z" data-tags="arrows_down_double-34" />
<glyph unicode="&#xe61a;" d="M772.688 587.312l-260.688-260.688-260.688 260.688-22.624-24.976 272-274.336h22.624l272 274.336z" data-tags="arrows_down" />
<glyph unicode="&#xe61b;" d="M352 688v-384l16-16h384v32h-368v368z" data-tags="arrows_downleft" />
<glyph unicode="&#xe61c;" d="M272 320v-32h384l16 16v384h-32v-368z" data-tags="arrows_downright" />
<glyph unicode="&#xe61d;" d="M496 80h32v-64h-32v64zM496 176h32v-64h-32v64zM496 368h32v-64h-32v64zM496 272h32v-64h-32v64zM768 704c0 141.152-114.848 256-256 256s-256-114.848-256-256c0-135.744 106.304-246.864 240-255.184v-48.816h32v48.816c133.696 8.32 240 119.44 240 255.184zM512 480c-123.52 0-224 100.48-224 224s100.48 224 224 224 224-100.48 224-224-100.48-224-224-224zM379.312 107.312l-22.624-24.976 144-146.336h22.624l144 146.336-22.624 23.808-123.312-122.144h-18.752z" data-tags="arrows_drag_down_dashed" />
<glyph unicode="&#xe61e;" d="M512 960c-141.152 0-256-114.848-256-256 0-135.744 106.304-246.864 240-255.184v-458.192l-116.688 116.688-22.624-24.976 144-146.336h22.624l144 146.336-22.624 23.792-116.688-115.504v458.192c133.696 8.32 240 119.44 240 255.184 0 141.152-114.848 256-256 256zM512 480c-123.52 0-224 100.48-224 224s100.48 224 224 224 224-100.48 224-224-100.48-224-224-224z" data-tags="arrows_drag_down" />
<glyph unicode="&#xe61f;" d="M368 960h32v-1024h-32v1024zM496 960h32v-1024h-32v1024zM624 960h32v-1024h-32v1024z" data-tags="arrows_drag_horiz" />
<glyph unicode="&#xe620;" d="M80 464h64v-32h-64v32zM368 464h64v-32h-64v32zM272 464h64v-32h-64v32zM176 464h64v-32h-64v32zM768 704c-135.76 0-246.864-106.32-255.184-240h-48.816v-32h48.816c8.32-133.68 119.424-240 255.184-240 141.152 0 256 114.848 256 256s-114.848 256-256 256zM768 224c-123.52 0-224 100.48-224 224s100.48 224 224 224 224-100.48 224-224-100.48-224-224-224zM146.336 603.312l-146.336-144v-22.624l146.336-144 23.808 22.624-122.144 123.312v18.752l122.144 123.312z" data-tags="arrows_drag_left_dashed" />
<glyph unicode="&#xe621;" d="M768 704c-135.76 0-246.864-106.32-255.184-240h-458.192l116.688 116.688-24.976 22.624-146.336-144v-22.624l146.336-144 23.792 22.624-115.504 116.688h458.192c8.32-133.68 119.424-240 255.184-240 141.152 0 256 114.848 256 256s-114.848 256-256 256zM768 224c-123.52 0-224 100.48-224 224s100.48 224 224 224 224-100.48 224-224-100.48-224-224-224z" data-tags="arrows_drag_left" />
<glyph unicode="&#xe622;" d="M592 464h64v-32h-64v32zM688 464h64v-32h-64v32zM880 464h64v-32h-64v32zM784 464h64v-32h-64v32zM511.184 432h48.816v32h-48.816c-8.32 133.68-119.424 240-255.184 240-141.152 0-256-114.848-256-256s114.848-256 256-256c135.76 0 246.864 106.32 255.184 240zM256 224c-123.52 0-224 100.48-224 224s100.48 224 224 224 224-100.48 224-224-100.48-224-224-224zM852.688 580.688l123.312-123.312v-18.752l-123.312-123.312 24.976-22.624 146.336 144v22.624l-146.336 144z" data-tags="arrows_drag_right_dashed" />
<glyph unicode="&#xe623;" d="M852.688 580.688l116.688-116.688h-458.192c-8.32 133.68-119.424 240-255.184 240-141.152 0-256-114.848-256-256s114.848-256 256-256c135.76 0 246.864 106.32 255.184 240h458.192l-116.688-116.688 24.976-22.624 146.336 144v22.624l-146.336 144-24.976-22.624zM256 224c-123.52 0-224 100.48-224 224s100.48 224 224 224 224-100.48 224-224-100.48-224-224-224z" data-tags="arrows_drag_right" />
<glyph unicode="&#xe624;" d="M496 688h32v-64h-32v64zM496 880h32v-64h-32v64zM496 784h32v-64h-32v64zM496 592h32v-64h-32v64zM256 192c0-141.152 114.848-256 256-256s256 114.848 256 256c0 135.744-106.304 246.864-240 255.184v48.816h-32v-48.816c-133.696-8.32-240-119.44-240-255.184zM512 416c123.52 0 224-100.48 224-224s-100.48-224-224-224-224 100.48-224 224 100.48 224 224 224zM644.688 788.688l22.624 24.976-144 146.336h-22.624l-144-146.336 22.624-23.808 123.312 122.144h18.752z" data-tags="arrows_drag_up_dashed" />
<glyph unicode="&#xe625;" d="M528 447.184v458.192l116.688-116.688 22.624 24.976-144 146.336h-22.624l-144-146.336 22.624-23.792 116.688 115.504v-458.192c-133.696-8.32-240-119.44-240-255.184 0-141.152 114.848-256 256-256s256 114.848 256 256c0 135.744-106.304 246.864-240 255.184zM512-32c-123.52 0-224 100.48-224 224s100.48 224 224 224 224-100.48 224-224-100.48-224-224-224z" data-tags="arrows_drag_up" />
<glyph unicode="&#xe626;" d="M0 336h1024v-32h-1024v32zM0 464h1024v-32h-1024v32zM0 592h1024v-32h-1024v32z" data-tags="arrows_drag_vert" />
<glyph unicode="&#xe627;" d="M512 960c-136.752 0-265.328-53.28-362.016-150-96.72-96.672-149.984-225.248-149.984-362s53.264-265.328 149.984-362.016c96.688-96.72 225.264-149.984 362.016-149.984s265.328 53.28 362.032 150c96.704 96.672 149.968 225.248 149.968 362s-53.264 265.328-149.984 362.016c-96.688 96.72-225.264 149.984-362.016 149.984zM851.408 108.608c-90.672-90.672-211.2-140.608-339.408-140.608s-248.736 49.936-339.392 140.624c-90.672 90.64-140.608 211.168-140.608 339.376s49.936 248.736 140.608 339.392c90.656 90.672 211.184 140.608 339.392 140.608s248.736-49.952 339.408-140.624c90.672-90.64 140.592-211.168 140.592-339.376s-49.92-248.736-140.592-339.392zM496 688h32v-352h-32v352zM496 272h32v-64h-32v64z" data-tags="arrows_exclamation" />
<glyph unicode="&#xe628;" d="M832 960v-32h137.376l-361.376-361.376-388.688 388.688-22.624-22.624 800-800 22.624 22.624-388.688 388.688 361.376 361.376v-137.376h32v176l-16 16zM192-64v32h-137.376l361.376 361.376 391.344-391.344 22.624 22.624-802.656 802.656-22.624-22.624 388.688-388.688-361.376-361.376v137.376h-32v-176l16-16z" data-tags="arrows_expand_diagonal1" />
<glyph unicode="&#xe629;" d="M672 960v-1024h32v496h265.376l-84.688-84.688 24.976-22.624 114.336 112v22.624l-114.336 112-23.808-22.624 83.52-84.688h-265.376v496zM114.336 571.312l-114.336-112v-22.624l114.336-112 23.808 22.624-83.52 84.688h265.376v-496h32v1024h-32v-496h-265.376l83.52 84.688z" data-tags="arrows_expand_horizontal1" />
<glyph unicode="&#xe62a;" d="M0 256h496v-265.376l-84.688 84.688-22.624-24.976 112-114.336h22.624l112 114.336-22.624 23.808-84.688-83.52v265.376h496v32h-1024zM528 905.376l84.688-84.688 22.624 24.976-112 114.336h-22.624l-112-114.336 22.624-23.808 84.688 83.52v-265.376h-496v-32h1024v32h-496z" data-tags="arrows_expand_vertical1" />
<glyph unicode="&#xe62b;" d="M32 905.376l308.688-308.688 22.624 22.624-308.688 308.688h137.376v32h-176l-16-16v-176h32zM192-64v32h-137.376l308.688 308.688-22.624 22.624-308.688-308.688v137.376h-32v-176l16-16zM992-9.376l-308.688 308.688-22.624-22.624 308.688-308.688h-137.376v-32h176l16 16v176h-32zM832 960v-32h137.376l-308.688-308.688 22.624-22.624 308.688 308.688v-137.376h32v176l-16 16z" data-tags="arrows_expand" />
<glyph unicode="&#xe62c;" d="M267.312 347.312l-84.688 84.688h658.752l-84.688-84.688 24.976-22.624 114.336 112v22.624l-114.336 112-23.808-22.624 83.52-84.688h-658.752l84.688 84.688-24.976 22.624-114.336-112v-22.624l114.336-112zM992 960h32v-1024h-32v1024zM0 960h32v-1024h-32v1024z" data-tags="arrows_fit_horizontal" />
<glyph unicode="&#xe62d;" d="M411.312 203.312l-22.624-24.976 112-114.336h22.624l112 114.336-22.624 23.808-84.688-83.52v658.752l84.688-84.688 22.624 24.976-112 114.336h-22.624l-112-114.336 22.624-23.808 84.688 83.52v-658.752zM0 960h1024v-32h-1024v32zM0-32h1024v-32h-1024v32z" data-tags="arrows_fit_vertical" />
<glyph unicode="&#xe62e;" d="M724.688 708.688l260.688-260.688-260.688-260.688 24.976-22.624 274.336 272v22.624l-274.336 272zM274.336 732.352l-274.336-272v-22.624l274.336-272 23.808 22.624-260.112 260.688 259.808 260.688zM512 544c-52.944 0-96-43.056-96-96s43.056-96 96-96 96 43.056 96 96-43.056 96-96 96zM512 384c-35.296 0-64 28.704-64 64s28.704 64 64 64 64-28.704 64-64-28.704-64-64-64z" data-tags="arrows_glide_horizontal" />
<glyph unicode="&#xe62f;" d="M511.472-24.864l-260.672 260.704-22.624-25.232 271.984-274.608h22.624l272.016 274.608-22.624 23.92zM501.2 960l-272-274.080 22.624-23.664 260.688 260.16 260.688-260.96 22.624 24.592-272 273.952zM607.488 448.512c0 52.944-43.056 96-96 96s-96-43.056-96-96 43.056-96 96-96 96 43.072 96 96zM447.488 448.512c0 35.296 28.704 64 64 64s64-28.704 64-64-28.704-64-64-64-64 28.72-64 64z" data-tags="arrows_glide_vertical" />
<glyph unicode="&#xe630;" d="M511.472-24.864l-212.16 212.176-22.624-25.232 223.472-226.080h22.624l224.016 226.608-22.624 23.92zM501.2 960l-224.512-226.608 22.624-23.664 213.2 212.688 212.688-212.96 22.624 24.592-224 225.952zM607.488 448.512c0 52.944-43.056 96-96 96s-96-43.056-96-96 43.056-96 96-96 96 43.072 96 96zM447.488 448.512c0 35.296 28.704 64 64 64s64-28.704 64-64-28.704-64-64-64-64 28.72-64 64zM772.688 660.688l212.688-212.688-212.688-212.688 24.976-22.624 226.336 224v22.624l-226.336 224zM250.8 661.2l-24.976 22.624-225.824-223.472v-22.624l226.864-224.528 23.792 22.624-212.624 213.216z" data-tags="arrows_glide" />
<glyph unicode="&#xe631;" d="M192 640h640v-32h-640v32zM192 448h640v-32h-640v32zM192 256h640v-32h-640v32z" data-tags="arrows_hamburger 2" />
<glyph unicode="&#xe632;" d="M0 640h96v-32h-96v32zM256 640h768v-32h-768v32zM0 448h96v-32h-96v32zM256 448h768v-32h-768v32zM0 256h96v-32h-96v32zM256 256h768v-32h-768v32z" data-tags="arrows_hamburger1" />
<glyph unicode="&#xe633;" d="M114.336 571.312l-114.336-112v-22.624l114.336-112 23.808 22.624-83.52 84.688h914.752l-84.688-84.688 24.976-22.624 114.336 112v22.624l-114.336 112-23.808-22.624 83.52-84.688h-914.752l83.52 84.688z" data-tags="arrows_horizontal" />
<glyph unicode="&#xe634;" d="M512 960c-136.768 0-265.328-53.28-362.032-150-96.72-96.672-149.984-225.248-149.984-362s53.264-265.328 149.984-362.016c96.704-96.72 225.264-149.984 362.032-149.984 136.752 0 265.328 53.28 362.032 150 96.72 96.688 149.984 225.264 149.984 362.016s-53.264 265.328-149.984 362.016c-96.704 96.704-225.28 149.968-362.032 149.968zM851.408 108.608c-90.656-90.672-211.2-140.608-339.408-140.608-128.224 0-248.752 49.936-339.408 140.624-90.672 90.64-140.608 211.168-140.608 339.376s49.936 248.736 140.608 339.392c90.656 90.672 211.184 140.608 339.408 140.608 128.208 0 248.752-49.952 339.408-140.624 90.672-90.64 140.608-211.168 140.608-339.376s-49.936-248.736-140.608-339.392zM496 560h32v-352h-32v352zM496 688h32v-64h-32v64z" data-tags="arrows_info" />
<glyph unicode="&#xe635;" d="M16 960l-16-16v-992l16-16h992l16 16v992l-16 16h-992zM992-32h-960v960h960v-960zM466.688 279.12l13.312-7.12h448v32h-439.44l-187.248 280.88-13.312 7.12h-192v-32h183.44zM480 592h448v-32h-448v32z" data-tags="arrows_keyboard_alt" />
<glyph unicode="&#xe636;" d="M16 960l-16-16v-992l16-16h992l16 16v992l-16 16h-992zM992-32h-960v960h960v-960zM352 384c-52.944 0-96-43.056-96-96s43.056-96 96-96 96 43.056 96 96v64h128v-64c0-52.944 43.056-96 96-96s96 43.056 96 96-43.056 96-96 96h-64v128h64c52.944 0 96 43.056 96 96s-43.056 96-96 96-96-43.056-96-96v-64h-128v64c0 52.944-43.056 96-96 96s-96-43.056-96-96 43.056-96 96-96h64v-128h-64zM416 288c0-35.296-28.704-64-64-64s-64 28.704-64 64 28.704 64 64 64h64v-64zM608 608c0 35.296 28.704 64 64 64s64-28.704 64-64-28.704-64-64-64h-64v64zM608 352h64c35.296 0 64-28.704 64-64s-28.704-64-64-64-64 28.704-64 64v64zM448 512h128v-128h-128v128zM352 544c-35.296 0-64 28.704-64 64s28.704 64 64 64 64-28.704 64-64v-64h-64z" data-tags="arrows_keyboard_cmd-29" />
<glyph unicode="&#xe637;" d="M16 960l-16-16v-992l16-16h992l16 16v992l-16 16h-992zM992-32h-960v960h960v-960zM896 240v416h-599.488l-173.344-208 173.328-208h599.504zM311.488 624h552.512v-352h-552.512l-146.672 176 146.672 176zM443.312 324.688l100.688 100.688 100.688-100.688 22.624 22.624-100.688 100.688 100.688 100.688-22.624 22.624-100.688-100.688-100.688 100.688-22.624-22.624 100.688-100.688-100.688-100.688z" data-tags="arrows_keyboard_delete" />
<glyph unicode="&#xe638;" d="M16 960l-16-16v-992l16-16h992l16 16v992l-16 16h-992zM992-32h-960v960h960v-960zM525.184 272l176 259.472-13.184 28.528h-352l-13.184-28.528 176-259.472h26.368zM657.584 528l-145.584-211.76-145.584 211.76h291.168z" data-tags="arrows_keyboard_down-28" />
<glyph unicode="&#xe639;" d="M16 960l-16-16v-992l16-16h992l16 16v992l-16 16h-992zM992-32h-960v960h960v-960zM624 272v352l-28.528 13.184-259.472-176v-26.368l259.472-176 28.528 13.184zM592 302.416l-211.76 145.584 211.76 145.584v-291.168z" data-tags="arrows_keyboard_left" />
<glyph unicode="&#xe63a;" d="M16 960l-16-16v-992l16-16h992l16 16v992l-16 16h-992zM992-32h-960v960h960v-960zM299.312 235.312l-116.688 116.688h713.376v336h-192v-32h160v-272h-681.376l116.688 116.688-24.976 22.624-146.336-144v-22.624l146.336-144z" data-tags="arrows_keyboard_return" />
<glyph unicode="&#xe63b;" d="M16 960l-16-16v-992l16-16h992l16 16v992l-16 16h-992zM992-32h-960v960h960v-960zM688 434.816v26.368l-259.472 176-28.528-13.184v-352l28.528-13.184 259.472 176zM432 593.584l211.76-145.584-211.76-145.584v291.168z" data-tags="arrows_keyboard_right" />
<glyph unicode="&#xe63c;" d="M16 960l-16-16v-992l16-16h992l16 16v992l-16 16h-992zM992-32h-960v960h960v-960zM384 368v-144l16-16h224.016l15.984 16v144h112l12.304 29.12-240 290.88h-24.592l-240-290.88 12.288-29.12h112zM512 647.008l205.84-247.008h-93.84l-16-16 0.016-144h-192.016v144l-16 16h-93.84l205.84 247.008z" data-tags="arrows_keyboard_shift" />
<glyph unicode="&#xe63d;" d="M16 960l-16-16v-992l16-16h992l16 16v992l-16 16h-992zM992-32h-960v960h960v-960zM612.688 347.312l24.976-22.624 114.336 112v22.624l-114.336 112-23.808-22.624 83.52-84.688h-505.376v-32h505.376zM784 592h32v-288h-32v288z" data-tags="arrows_keyboard_tab" />
<glyph unicode="&#xe63e;" d="M16 960l-16-16v-992l16-16h992l16 16v992l-16 16h-992zM992-32h-960v960h960v-960zM688 304l13.184 28.528-176 259.472h-26.368l-176-259.472 13.184-28.528h352zM512 547.76l145.584-211.76h-291.168l145.584 211.76z" data-tags="arrows_keyboard_up" />
<glyph unicode="&#xe63f;" d="M538.288 709.712l-24.464 22.624-273.824-272v-22.624l273.824-272 23.536 22.624-260.224 260.688zM753.824 732.336l-273.824-272v-22.624l273.824-272 23.536 22.624-260.224 260.688 260 260.688z" data-tags="arrows_left_double-32" />
<glyph unicode="&#xe640;" d="M578.336 731.312l-274.336-272v-22.624l274.336-272 23.808 22.624-260.112 260.688 259.808 260.688z" data-tags="arrows_left" />
<glyph unicode="&#xe641;" d="M224 480h576v-32h-576v32z" data-tags="arrows_minus" />
<glyph unicode="&#xe642;" d="M523.312 128l112 114.336-22.624 23.808-84.688-83.52v697.376h-32v-697.376l-84.688 84.688-22.624-24.976 112-114.336zM0 32h1024v-32h-1024v32z" data-tags="arrows_move_bottom" />
<glyph unicode="&#xe643;" d="M331.312 347.312l-84.688 84.688h697.376v32h-697.376l84.688 84.688-24.976 22.624-114.336-112v-22.624l114.336-112zM64 960h32v-1024h-32v1024z" data-tags="arrows_move_left" />
<glyph unicode="&#xe644;" d="M692.688 347.312l24.976-22.624 114.336 112v22.624l-114.336 112-23.808-22.624 83.52-84.688h-697.376v-32h697.376zM928 960h32v-1024h-32v1024z" data-tags="arrows_move_right" />
<glyph unicode="&#xe645;" d="M528 16v697.376l84.688-84.688 22.624 24.976-112 114.336h-22.624l-112-114.336 22.624-23.808 84.688 83.52v-697.376zM0 896h1024v-32h-1024v32z" data-tags="arrows_move_top" />
<glyph unicode="&#xe646;" d="M139.312 548.688l-24.976 22.624-114.336-112v-22.624l114.336-112 23.808 22.624-83.52 84.688h377.376v32h-377.376zM592 432h377.376l-84.688-84.688 24.976-22.624 114.336 112v22.624l-114.336 112-23.808-22.624 83.52-84.688h-377.376zM500.688 960l-112-114.336 22.624-23.808 84.688 83.52v-377.376h32v377.376l84.688-84.688 22.624 24.976-112 114.336zM496 368v-377.376l-84.688 84.688-22.624-24.976 112-114.336h22.624l112 114.336-22.624 23.808-84.688-83.52v377.376z" data-tags="arrows_move" />
<glyph unicode="&#xe647;" d="M0 436.688l114.336-112 23.808 22.624-83.52 84.688h441.376v-441.376l-84.688 84.688-22.624-24.976 112-114.336h22.624l112 114.336-22.624 23.808-84.688-83.52v441.376h441.376l-84.688-84.688 24.976-22.624 114.336 112v22.624l-114.336 112-23.808-22.624 83.52-84.688h-441.376v441.376l84.688-84.688 22.624 24.976-112 114.336h-22.624l-112-114.336 22.624-23.808 84.688 83.52v-441.376h-441.376l84.688 84.688-24.976 22.624-114.336-112z" data-tags="arrows_move2" />
<glyph unicode="&#xe648;" d="M496 736v-272h-272v-32h272v-272h32v272h272v32h-272v272z" data-tags="arrows_plus" />
<glyph unicode="&#xe649;" d="M512 960c-136.768 0-265.328-53.28-362.032-150-96.72-96.672-149.984-225.248-149.984-362s53.264-265.328 149.984-362.016c96.704-96.72 225.264-149.984 362.032-149.984 136.752 0 265.328 53.28 362.032 150 96.72 96.688 149.984 225.264 149.984 362.016s-53.264 265.328-149.984 362.016c-96.704 96.704-225.28 149.968-362.032 149.968zM851.408 108.608c-90.656-90.672-211.2-140.608-339.408-140.608-128.224 0-248.752 49.936-339.408 140.624-90.672 90.64-140.608 211.168-140.608 339.376s49.936 248.736 140.608 339.392c90.656 90.672 211.184 140.608 339.408 140.608 128.208 0 248.752-49.952 339.408-140.624 90.672-90.64 140.608-211.168 140.608-339.376s-49.936-248.736-140.608-339.392zM464 272h32v-64h-32v64zM512 720c-95.552 0-144-32.304-144-96h32c0 29.792 12.736 64 112 64 68.032 0 112-37.68 112-96 0-44.224-62.928-85.52-87.152-97.68-2.976-1.504-72.848-37.632-72.848-142.32v-16h32v16c0 84.144 52.992 112.576 55.152 113.68 4.288 2.144 104.848 53.28 104.848 126.32 0 75.36-59.216 128-144 128z" data-tags="arrows_question" />
<glyph unicode="&#xe64a;" d="M707.792 698.384l-195.952-197.424-197.424 195.952-22.528-22.72 197.424-195.936-195.952-197.44 22.72-22.544 195.952 197.424 197.424-195.952 22.528 22.72-197.424 195.936 195.952 197.44z" data-tags="arrows_remove" />
<glyph unicode="&#xe64b;" d="M484.688 708.688l260.688-260.688-260.688-260.688 24.976-22.624 274.336 272v22.624l-274.336 272zM544 459.312l-274.336 272-23.808-22.624 260.112-260.688-260.976-260.688 24.816-22.624 274.192 272z" data-tags="arrows_right_double-31" />
<glyph unicode="&#xe64c;" d="M720 459.312l-274.336 272-23.808-22.624 260.112-260.688-260.976-260.688 24.816-22.624 274.192 272z" data-tags="arrows_right" />
<glyph unicode="&#xe64d;" d="M496 960c-10.88 0-22-0.368-33.024-1.088l2.112-31.936c10.288 0.688 20.592 1.024 30.912 1.024v32zM6.576 383.12l31.584 5.216c-3.488 21.072-5.504 42.672-6.016 64.144l-31.984-0.752c0.528-22.96 2.688-46.048 6.416-68.608zM0.496 486.192l31.968-1.44c0.96 21.424 3.424 42.976 7.328 64.064l-31.472 5.808c-4.144-22.512-6.784-45.552-7.824-68.432zM15.776 588.304l30.992-8c5.36 20.8 12.224 41.376 20.4 61.12l-29.584 12.224c-8.72-21.136-16.064-43.12-21.808-65.344zM125.505 185.081l47.171-47.184-22.63-22.624-47.171 47.184 22.63 22.624zM428.688 955.456c-22.704-3.104-45.408-7.808-67.44-14l8.656-30.816c20.624 5.792 41.856 10.208 63.104 13.088l-4.32 31.728zM328.416 930.96c-21.6-7.728-42.816-17.040-63.088-27.712l14.896-28.32c18.96 9.952 38.8 18.672 58.976 25.904l-10.784 30.128zM47.472 251.904c9.808-20.72 21.168-40.928 33.744-60.064l26.736 17.6c-11.776 17.888-22.384 36.784-31.568 56.16l-28.912-13.696zM51.856 685.024l28.656-14.256c9.52 19.136 20.512 37.824 32.672 55.536l-26.368 18.128c-13.008-18.928-24.768-38.912-34.96-59.408zM13.328 349.328c5.28-22.288 12.176-44.4 20.496-65.744l29.808 11.632c-7.792 19.968-14.24 40.656-19.168 61.504l-31.136-7.392zM252.256 858.944l-16.848 27.216c-19.504-12.080-38.304-25.616-55.904-40.256l20.448-24.592c16.464 13.68 34.048 26.352 52.304 37.632zM145.296 814.72c-13.44-13.456-26.224-27.76-37.984-42.56l25.056-19.904c11.008 13.84 22.96 27.248 35.584 39.872 2.624 2.64 5.264 5.2 7.936 7.744l-22.096 23.152c-2.864-2.72-5.712-5.504-8.496-8.304zM528-32v-32c10.88 0 22 0.368 33.024 1.088l-2.112 31.936c-10.288-0.688-20.592-1.024-30.912-1.024zM990.16 612.416l-29.808-11.632c7.792-19.968 14.24-40.656 19.168-61.504l31.136 7.376c-5.264 22.304-12.16 44.416-20.496 65.76zM1008.224 307.696l-30.992 8c-5.36-20.8-12.224-41.376-20.4-61.12l29.584-12.224c8.72 21.136 16.064 43.12 21.808 65.344zM985.856 507.664c3.488-21.072 5.504-42.672 6.016-64.144l31.984 0.752c-0.544 22.976-2.704 46.048-6.432 68.608l-31.568-5.216zM984.192 347.184l31.472-5.808c4.16 22.512 6.8 45.552 7.84 68.432l-31.968 1.44c-0.96-21.424-3.44-42.96-7.344-64.064zM788.592 9.84c19.504 12.080 38.304 25.616 55.904 40.256l-20.448 24.592c-16.464-13.664-34.048-26.336-52.304-37.632l16.848-27.216zM870.208 72.976c2.864 2.736 5.712 5.52 8.496 8.32 13.44 13.456 26.224 27.76 37.984 42.56l-25.056 19.904c-11.008-13.84-22.96-27.248-35.584-39.872-2.624-2.64-5.264-5.2-7.936-7.744l22.096-23.168zM972.144 210.976l-28.656 14.256c-9.52-19.136-20.512-37.824-32.672-55.536l26.368-18.128c13.008 18.928 24.768 38.912 34.96 59.408zM654.080-14.64c-20.624-5.792-41.856-10.208-63.104-13.088l4.336-31.712c22.704 3.104 45.408 7.808 67.44 14l-8.672 30.8zM743.776 21.072c-18.96-9.952-38.8-18.672-58.976-25.904l10.784-30.128c21.6 7.728 42.816 17.040 63.088 27.712l-14.896 28.32zM976.528 644.096c-9.808 20.72-21.168 40.928-33.744 60.064l-26.736-17.6c11.776-17.888 22.384-36.784 31.568-56.16l28.912 13.696zM898.514 710.979l-47.171 47.184 22.63 22.624 47.171-47.184-22.63-22.624zM32 96v-32h176l16 16v176h-32v-146.752l-13.248-13.248zM800 816v-176h32v146.752l13.248 13.248h146.752v32h-176z" data-tags="arrows_rotate_anti_dashed" />
<glyph unicode="&#xe64e;" d="M99.168 166.384l70.208-70.384h-137.376v-32h176l16 16v176h-32v-137.44l-67.936 67.952c-137.104 183.248-118.336 443.392 43.856 605.584 87.632 87.632 204.144 135.904 328.080 135.904v32c-132.48 0-257.024-51.6-350.704-145.28-173.664-173.664-193.504-452.384-46.128-648.336zM854.624 800h137.376v32h-176l-16-16v-176h32v137.44l67.936-67.952c137.104-183.248 118.336-443.392-43.856-605.584-87.632-87.632-204.144-135.904-328.080-135.904v-32c132.48 0 257.024 51.6 350.704 145.28 173.664 173.664 193.504 452.368 46.128 648.336l-70.208 70.384z" data-tags="arrows_rotate_anti" />
<glyph unicode="&#xe64f;" d="M528 960v-32c10.304 0 20.608-0.336 30.912-1.024l2.128 31.92c-10.912 0.736-22.032 1.104-33.040 1.104zM595.296 955.44l-4.32-31.696c21.264-2.896 42.496-7.312 63.104-13.104l8.656 30.8c-22 6.192-44.704 10.896-67.44 14zM1010.656 349.328l-31.12 7.376c-4.976-20.912-11.424-41.616-19.184-61.504l29.808-11.648c8.304 21.296 15.2 43.424 20.496 65.776zM1023.856 451.728l-32 0.768c-0.496-21.408-2.528-42.992-6-64.16l31.568-5.184c3.712 22.624 5.888 45.696 6.432 68.576zM873.911 115.219l-22.627 22.627 47.178 47.178 22.627-22.627-47.178-47.178zM695.584 930.944l-10.784-30.128c20.176-7.232 40.032-15.952 59.008-25.904l14.88 28.336c-20.304 10.656-41.536 19.968-63.104 27.696zM976.512 251.92l-28.928 13.68c-9.152-19.344-19.776-38.256-31.568-56.16l26.72-17.6c12.608 19.168 23.968 39.376 33.776 60.080zM984.176 548.784c3.904-21.072 6.368-42.624 7.344-64.048l31.968 1.44c-1.024 22.896-3.664 45.92-7.84 68.432l-31.472-5.824zM910.816 726.32c12.144-17.664 23.12-36.352 32.656-55.536l28.656 14.256c-10.208 20.512-21.952 40.496-34.944 59.408l-26.368-18.128zM956.816 641.408c8.176-19.792 15.024-40.352 20.384-61.136l31.008 7.984c-5.728 22.224-13.056 44.208-21.792 65.36l-29.6-12.208zM870.208 823.008l-22.096-23.136c2.688-2.576 5.36-5.184 7.968-7.776 12.576-12.56 24.528-25.968 35.552-39.824l25.056 19.904c-11.776 14.816-24.56 29.136-38.032 42.608-2.816 2.768-5.616 5.52-8.448 8.224zM771.744 858.944c18.176-11.232 35.76-23.904 52.304-37.632l20.432 24.608c-17.664 14.672-36.464 28.208-55.888 40.24l-16.848-27.216zM832 109.248v146.752h-32v-176l16-16h176v32h-146.752zM496-32c-10.304 0-20.608 0.336-30.912 1.024l-2.128-31.92c10.912-0.736 22.032-1.104 33.040-1.104v32zM179.52 50.080c17.664-14.672 36.464-28.208 55.888-40.24l16.848 27.216c-18.176 11.232-35.76 23.904-52.304 37.632l-20.432-24.608zM0.512 409.824c1.024-22.896 3.664-45.92 7.84-68.432l31.472 5.824c-3.904 21.072-6.368 42.624-7.344 64.048l-31.968-1.44zM15.792 307.728c5.728-22.224 13.056-44.208 21.792-65.36l29.6 12.224c-8.176 19.792-15.024 40.352-20.384 61.136l-31.008-8zM44.464 539.296c4.976 20.912 11.424 41.616 19.184 61.504l-29.808 11.648c-8.32-21.28-15.2-43.408-20.496-65.776l31.12-7.376zM280.208 21.088l-14.88-28.336c20.288-10.656 41.52-19.984 63.088-27.696l10.784 30.128c-20.176 7.216-40.032 15.936-58.992 25.904zM0.144 444.272l32-0.768c0.496 21.408 2.528 42.992 6 64.16l-31.568 5.184c-3.712-22.624-5.888-45.696-6.432-68.576zM47.488 644.080l28.928-13.68c9.152 19.344 19.776 38.256 31.568 56.16l-26.72 17.6c-12.608-19.168-23.968-39.376-33.776-60.080zM51.872 210.976c10.208-20.512 21.952-40.496 34.944-59.408l26.368 18.128c-12.144 17.664-23.12 36.352-32.656 55.536l-28.656-14.256zM153.792 72.992l22.096 23.136c-2.688 2.576-5.36 5.184-7.968 7.776-12.576 12.56-24.528 25.968-35.552 39.824l-25.056-19.888c11.776-14.816 24.56-29.136 38.032-42.608 2.816-2.784 5.616-5.536 8.448-8.24zM125.539 710.961l-22.627 22.627 47.178 47.178 22.627-22.627-47.178-47.178zM369.904-14.64l-8.656-30.8c22.016-6.208 44.72-10.912 67.456-14l4.32 31.696c-21.28 2.912-42.512 7.312-63.12 13.104zM32 832v-32h146.752l13.248-13.248v-146.752h32v176l-16 16z" data-tags="arrows_rotate_dashed" />
<glyph unicode="&#xe650;" d="M528 928c123.936 0 240.448-48.272 328.080-135.904 162.208-162.192 180.96-422.336 43.84-605.584l-67.92-67.936v137.424h-32v-176l16-16h176v32h-137.312l68.672 68.688 1.472 1.696c147.376 195.952 127.552 474.672-46.128 648.336-93.68 93.68-218.224 145.28-350.704 145.28v-32zM124.080 709.488l67.92 67.936v-137.424h32v176l-16 16h-176v-32h137.312l-68.672-68.688-1.472-1.696c-147.376-195.952-127.536-474.672 46.128-648.336 93.68-93.68 218.224-145.28 350.704-145.28v32c-123.936 0-240.448 48.272-328.080 135.904-162.208 162.192-180.944 422.336-43.84 605.584z" data-tags="arrows_rotate" />
<glyph unicode="&#xe651;" d="M27.312 379.312l-22.624-22.624 416-416 22.624 22.624-196.688 196.688 201.376 201.376v-137.376h32v176l-16 16h-176v-32h137.376l-201.376-201.376zM544 672v-176l16-16h176v32h-137.376l201.376 201.376 196.688-196.688 22.624 22.624-416 416-22.624-22.624 196.688-196.688-201.376-201.376v137.376z" data-tags="arrows_shrink_diagonal1" />
<glyph unicode="&#xe652;" d="M736 480v32h-137.376l420.688 420.688-22.624 22.624-420.688-420.688v137.376h-32v-176l16-16zM27.312-59.312l420.688 420.688v-137.376h32v176l-16 16h-176v-32h137.376l-420.688-420.688z" data-tags="arrows_shrink_diagonal2" />
<glyph unicode="&#xe653;" d="M731.312 548.688l-24.976 22.624-114.336-112v-22.624l114.336-112 23.808 22.624-83.52 84.688h377.376v32h-377.376zM292.688 548.688l84.688-84.688h-377.376v-32h377.376l-84.688-84.688 24.976-22.624 114.336 112v22.624l-114.336 112z" data-tags="arrows_shrink_horizonal2" />
<glyph unicode="&#xe654;" d="M64 960v-1024h32v496h281.376l-84.688-84.688 24.976-22.624 114.336 112v22.624l-114.336 112-23.808-22.624 83.52-84.688h-281.376v496zM706.336 571.312l-114.336-112v-22.624l114.336-112 23.808 22.624-83.52 84.688h281.376v-496h32v1024h-32v-496h-281.376l83.52 84.688z" data-tags="arrows_shrink_horizontal1" />
<glyph unicode="&#xe655;" d="M0 864h496v-281.376l-84.688 84.688-22.624-24.976 112-114.336h22.624l112 114.336-22.624 23.808-84.688-83.52v281.376h496v32h-1024zM528 313.376l84.688-84.688 22.624 24.976-112 114.336h-22.624l-112-114.336 22.624-23.808 84.688 83.52v-281.376h-496v-32h1024v32h-496z" data-tags="arrows_shrink_vertical1" />
<glyph unicode="&#xe656;" d="M528 582.624v377.376h-32v-377.376l-84.688 84.688-22.624-24.976 112-114.336h22.624l112 114.336-22.624 23.808zM500.688 368l-112-114.336 22.624-23.808 84.688 83.52v-377.376h32v377.376l84.688-84.688 22.624 24.976-112 114.336z" data-tags="arrows_shrink_vertical2" />
<glyph unicode="&#xe657;" d="M27.312-59.312l324.688 324.688v-137.376h32v176l-16 16h-176v-32h137.376l-324.688-324.688zM640 128h32v137.376l324.688-324.688 22.624 22.624-324.688 324.688h137.376v32h-176l-16-16zM640 768v-176l16-16h176v32h-137.376l324.688 324.688-22.624 22.624-324.688-324.688v137.376zM192 576h176l16 16v176h-32v-137.376l-324.688 324.688-22.624-22.624 324.688-324.688h-137.376z" data-tags="arrows_shrink" />
<glyph unicode="&#xe658;" d="M224 233.648l287.984-304.944 288.016 304.944v726.352h-576v-726.352zM256 928h512v-681.648l-256.016-271.040-255.984 271.040v681.648z" data-tags="arrows_sign_down" />
<glyph unicode="&#xe659;" d="M297.648 736l-304.944-287.984 304.944-288.016h726.352v576h-726.352zM992 192h-681.648l-271.056 256.016 271.056 255.984h681.648v-512z" data-tags="arrows_sign_left" />
<glyph unicode="&#xe65a;" d="M0 736v-576h726.352l304.944 287.984-304.944 288.016h-726.352zM713.648 192h-681.648v512h681.648l271.056-256.016-271.056-255.984z" data-tags="arrows_sign_right" />
<glyph unicode="&#xe65b;" d="M512.016 967.312l-288.016-304.96v-726.352h576v726.352l-287.984 304.96zM768-32h-512v681.648l256.016 271.040 255.984-271.040v-681.648z" data-tags="arrows_sign_up" />
<glyph unicode="&#xe65c;" d="M736 928v32h-320v-969.376l-116.688 116.688-22.624-24.976 144-146.336h22.624l144 146.336-22.624 23.808-116.688-115.52v937.376z" data-tags="arrows_slide_down1" />
<glyph unicode="&#xe65d;" d="M288 928h288v-937.376l-116.688 116.688-22.624-24.976 144-146.336h22.624l144 146.336-22.624 23.808-116.688-115.52v969.376h-320z" data-tags="arrows_slide_down2" />
<glyph unicode="&#xe65e;" d="M171.312 660.688l-24.976 22.624-146.336-144v-22.624l146.336-144 23.808 22.624-115.52 116.688h937.376v-288h32v320h-969.376z" data-tags="arrows_slide_left1" />
<glyph unicode="&#xe65f;" d="M992 384h-937.376l116.688 116.688-24.976 22.624-146.336-144v-22.624l146.336-144 23.808 22.624-115.52 116.688h969.376v320h-32z" data-tags="arrows_slide_left2" />
<glyph unicode="&#xe660;" d="M32 512h937.376l-116.688-116.688 24.976-22.624 146.336 144v22.624l-146.336 144-23.808-22.624 115.52-116.688h-969.376v-320h32z" data-tags="arrows_slide_right1" />
<glyph unicode="&#xe661;" d="M852.688 235.312l24.976-22.624 146.336 144v22.624l-146.336 144-23.808-22.624 115.52-116.688h-937.376v288h-32v-320h969.376z" data-tags="arrows_slide_right2" />
<glyph unicode="&#xe662;" d="M288-32v-32h320v969.376l116.688-116.688 22.624 24.976-144 146.336h-22.624l-144-146.336 22.624-23.808 116.688 115.52v-937.376z" data-tags="arrows_slide_up1" />
<glyph unicode="&#xe663;" d="M736-64v32h-288v937.376l116.688-116.688 22.624 24.976-144 146.336h-22.624l-144-146.336 22.624-23.808 116.688 115.52v-969.376z" data-tags="arrows_slide_up2" />
<glyph unicode="&#xe664;" d="M496 384h32v-64h-32v64zM496 672h32v-64h-32v64zM496 480h32v-64h-32v64zM496 576h32v-64h-32v64zM496 768h32v-64h-32v64zM496 960h32v-64h-32v64zM496 864h32v-64h-32v64zM496 288h32v-64h-32v64zM496 192h32v-64h-32v64zM496 96h32v-16h-32v16zM500.688-64h22.624l144 146.336-22.624 23.808-132.688-132.112-132.688 132.976-22.624-24.8z" data-tags="arrows_slim_down_dashed" />
<glyph unicode="&#xe665;" d="M496 960v-969.376l-116.688 116.688-22.624-24.976 144-146.336h22.624l144 146.336-22.624 23.808-116.688-115.52v969.376z" data-tags="arrows_slim_down" />
<glyph unicode="&#xe666;" d="M672 464h64v-32h-64v32zM576 464h64v-32h-64v32zM480 464h64v-32h-64v32zM768 464h64v-32h-64v32zM864 464h64v-32h-64v32zM960 464h64v-32h-64v32zM192 464h64v-32h-64v32zM288 464h64v-32h-64v32zM384 464h64v-32h-64v32zM96 464h64v-32h-64v32zM146.336 603.312l-146.336-144v-22.624l146.336-144 23.808 22.624-115.52 116.688h9.376v32h-9.376l115.52 116.688z" data-tags="arrows_slim_left_dashed" />
<glyph unicode="&#xe667;" d="M171.312 580.688l-24.976 22.624-146.336-144v-22.624l146.336-144 23.808 22.624-115.52 116.688h969.376v32h-969.376z" data-tags="arrows_slim_left" />
<glyph unicode="&#xe668;" d="M384 464h64v-32h-64v32zM96 464h64v-32h-64v32zM192 464h64v-32h-64v32zM288 464h64v-32h-64v32zM0 464h64v-32h-64v32zM864 464h64v-32h-64v32zM768 464h64v-32h-64v32zM672 464h64v-32h-64v32zM576 464h64v-32h-64v32zM480 464h64v-32h-64v32zM877.664 292.688l146.336 144v22.624l-146.336 144-23.808-22.624 115.52-116.688h-9.376v-32h9.376l-115.52-116.688z" data-tags="arrows_slim_right_dashed" />
<glyph unicode="&#xe669;" d="M852.688 315.312l24.976-22.624 146.336 144v22.624l-146.336 144-23.808-22.624 115.52-116.688h-969.376v-32h969.376z" data-tags="arrows_slim_right" />
<glyph unicode="&#xe66a;" d="M496 96h32v-64h-32v64zM496 672h32v-64h-32v64zM496 192h32v-64h-32v64zM496 384h32v-64h-32v64zM496 768h32v-64h-32v64zM496 288h32v-64h-32v64zM496 480h32v-64h-32v64zM496 864h32v-64h-32v64zM496 0h32v-64h-32v64zM496 576h32v-64h-32v64zM379.312 788.688l116.688 116.688v-9.376h32v9.376l116.688-116.688 22.624 24.976-144 146.336h-22.624l-144-146.336z" data-tags="arrows_slim_up_dashed" />
<glyph unicode="&#xe66b;" d="M528-64v969.376l116.688-116.688 22.624 24.976-144 146.336h-22.624l-144-146.336 22.624-23.808 116.688 115.52v-969.376z" data-tags="arrows_slim_up" />
<glyph unicode="&#xe66c;" d="M400 262.624l-180.688 180.688-22.624-24.976 192-194.336h22.624l384 386.336-22.624 23.808zM0-64h1024v1024h-1024v-1024zM32 928h960v-960h-960v960z" data-tags="arrows_square_check" />
<glyph unicode="&#xe66d;" d="M512 326.624l-260.688 260.688-22.624-24.976 272-274.336h22.624l272 274.336-22.624 23.808zM0-64h1024v1024h-1024v-1024zM32 928h960v-960h-960v960z" data-tags="arrows_square_down" />
<glyph unicode="&#xe66e;" d="M384 688h-32v-384l16-16h384v32h-368zM0-64h1024v1024h-1024v-1024zM32 928h960v-960h-960v960z" data-tags="arrows_square_downleft" />
<glyph unicode="&#xe66f;" d="M640 320h-368v-32h384l16 16v384h-32zM0-64h1024v1024h-1024v-1024zM32 928h960v-960h-960v960z" data-tags="arrows_square_downright" />
<glyph unicode="&#xe670;" d="M578.336 731.312l-274.336-272v-22.624l274.336-272 23.808 22.624-260.112 260.688 259.808 260.688zM0-64h1024v1024h-1024v-1024zM32 928h960v-960h-960v960z" data-tags="arrows_square_left" />
<glyph unicode="&#xe671;" d="M224 480h576v-32h-576v32zM0-64h1024v1024h-1024v-1024zM32 928h960v-960h-960v960z" data-tags="arrows_square_minus" />
<glyph unicode="&#xe672;" d="M496 160h32v272h272v32h-272v272h-32v-272h-272v-32h272zM0 960v-1024h1024v1024h-1024zM992-32h-960v960h960v-960z" data-tags="arrows_square_plus" />
<glyph unicode="&#xe673;" d="M730.512 675.84l-22.72 22.544-195.936-197.424-197.424 195.952-22.544-22.72 197.424-195.952-195.952-197.424 22.72-22.544 195.936 197.424 197.424-195.952 22.56 22.72-197.424 195.952zM0-64h1024v1024h-1024v-1024zM32 928h960v-960h-960v960z" data-tags="arrows_square_remove" />
<glyph unicode="&#xe674;" d="M420.688 708.688l260.688-260.688-260.688-260.688 24.976-22.624 274.336 272v22.624l-274.336 272zM0-64h1024v1024h-1024v-1024zM32 928h960v-960h-960v960z" data-tags="arrows_square_right" />
<glyph unicode="&#xe675;" d="M500.688 608l-272-274.336 22.624-23.808 260.688 260.112 260.688-260.976 22.624 24.816-272 274.192zM0-64h1024v1024h-1024v-1024zM32 928h960v-960h-960v960z" data-tags="arrows_square_up" />
<glyph unicode="&#xe676;" d="M352 592v-384h32v368h368v32h-384zM0-64h1024v1024h-1024v-1024zM32 928h960v-960h-960v960z" data-tags="arrows_square_upleft" />
<glyph unicode="&#xe677;" d="M272 608v-32h368v-368h32v384l-16 16zM0-64h1024v1024h-1024v-1024zM32 928h960v-960h-960v960z" data-tags="arrows_square_upright" />
<glyph unicode="&#xe678;" d="M464 960h-464v-464h464v464zM432 528h-400v400h400v-400zM560 496h464v464h-464v-464zM592 928h400v-400h-400v400zM464 400h-464v-464h464v464zM432-32h-400v400h400v-400zM560-64h464v464h-464v-464zM592 368h400v-400h-400v400z" data-tags="arrows_squares" />
<glyph unicode="&#xe679;" d="M832 960v-32h137.376l-372.688-372.688 22.624-22.624 372.688 372.688v-137.376h32v176l-16 16zM404.688 363.312l-372.688-372.688v137.376h-32v-176l16-16h176v32h-137.376l372.688 372.688zM628.688 308.678l-255.993 255.993 22.627 22.627 255.993-255.993-22.627-22.627z" data-tags="arrows_stretch_diagonal1" />
<glyph unicode="&#xe67a;" d="M992-9.376l-372.688 372.688-22.624-22.624 372.688-372.688h-137.376v-32h176l16 16v176h-32zM404.688 532.688l22.624 22.624-372.688 372.688h137.376v32h-176l-16-16v-176h32v137.376zM372.678 331.312l255.993 255.993 22.627-22.627-255.993-255.993-22.627 22.627z" data-tags="arrows_stretch_diagonal2" />
<glyph unicode="&#xe67b;" d="M832 960v-32h137.376l-457.376-457.376-484.688 484.688-22.624-22.624 484.688-484.688-457.376-457.376v137.376h-32v-176l16-16h176v32h-137.376l457.376 457.376 484.688-484.688 22.624 22.624-484.688 484.688 457.376 457.376v-137.376h32v176l-16 16z" data-tags="arrows_stretch_diagonal3" />
<glyph unicode="&#xe67c;" d="M992-9.376l-457.376 457.376 484.688 484.688-22.624 22.624-484.688-484.688-457.376 457.376h137.376v32h-176l-16-16v-176h32v137.376l457.376-457.376-484.688-484.688 22.624-22.624 484.688 484.688 457.376-457.376h-137.376v-32h176l16 16v176h-32z" data-tags="arrows_stretch_diagonal4" />
<glyph unicode="&#xe67d;" d="M868.688 564.688l100.688-100.688h-361.376v-32h361.376l-100.688-100.688 24.976-22.624 130.336 128v22.624l-130.336 128zM155.312 564.688l-24.976 22.624-130.336-128v-22.624l130.336-128 23.808 22.624-99.52 100.688h361.376v32h-361.376zM496 624h32v-352h-32v352z" data-tags="arrows_stretch_horizontal1" />
<glyph unicode="&#xe67e;" d="M868.688 564.688l100.688-100.688h-441.376v496h-32v-496h-441.376l100.688 100.688-24.976 22.624-130.336-128v-22.624l130.336-128 23.808 22.624-99.52 100.688h441.376v-496h32v496h441.376l-100.688-100.688 24.976-22.624 130.336 128v22.624l-130.336 128z" data-tags="arrows_stretch_horizontal2" />
<glyph unicode="&#xe67f;" d="M500.688 960l-128-130.336 22.624-23.808 100.688 99.52v-361.376h32v361.376l100.688-100.688 22.624 24.976-128 130.336zM528-9.376v361.376h-32v-361.376l-100.688 100.688-22.624-24.976 128-130.336h22.624l128 130.336-22.624 23.808zM336 464h352v-32h-352v32z" data-tags="arrows_stretch_vertical1" />
<glyph unicode="&#xe680;" d="M528 905.376l100.688-100.688 22.624 24.976-128 130.336h-22.624l-128-130.336 22.624-23.808 100.688 99.52v-441.376h-496v-32h496v-441.376l-100.688 100.688-22.624-24.976 128-130.336h22.624l128 130.336-22.624 23.808-100.688-99.52v441.376h496v32h-496z" data-tags="arrows_stretch_vertical2" />
<glyph unicode="&#xe681;" d="M878.32 132.688l145.68 144v22.624l-145.68 144-23.456-22.624 115.84-116.688h-826.704v-32h826.704l-115.84-116.688zM147.008 763.312l-147.008-144v-22.624l147.008-144 24.128 22.624-115.184 116.688h824.048v32h-824.048l115.184 116.688z" data-tags="arrows_switch_horizontal" />
<glyph unicode="&#xe682;" d="M688 79.968l1.264 825.472 116.752-116.752 22.624 24.976-144 146.336h-22.624l-144-146.336 22.624-23.808 116.624 116.048-1.264-825.568zM198.016 82.336l144-146.336h22.624l144 146.336-22.624 23.808-116.752-116.176-1.264 825.76-32 0.096 1.264-825.216-116.624 115.504z" data-tags="arrows_switch_vertical" />
<glyph unicode="&#xe683;" d="M500.672 720l-272-273.824 22.64-23.536 260.688 260.224 260.672-260.912 22.64 24.336-272 273.712zM500.672 480l-272-273.824 22.64-23.536 260.688 260.224 260.672-260.912 22.64 24.336-272 273.712z" data-tags="arrows_up_double-33" />
<glyph unicode="&#xe684;" d="M795.312 333.664l-272 274.336h-22.624l-272-274.336 22.624-23.808 260.688 260.112 260.688-259.808z" data-tags="arrows_up" />
<glyph unicode="&#xe685;" d="M384 576h368v32h-384l-16-16v-384h32z" data-tags="arrows_upleft" />
<glyph unicode="&#xe686;" d="M672 208v384l-16 16h-384v-32h368v-368z" data-tags="arrows_upright" />
<glyph unicode="&#xe687;" d="M411.312 75.312l-22.624-24.976 112-114.336h22.624l112 114.336-22.624 23.808-84.688-83.52v914.752l84.688-84.688 22.624 24.976-112 114.336h-22.624l-112-114.336 22.624-23.808 84.688 83.52v-914.752z" data-tags="arrows_vertical" />
<glyph unicode="&#xe688;" d="M512.016 961.808c-137.264 0-266.304-53.44-363.344-150.496-97.056-97.056-150.48-226.080-150.464-363.328 0-137.248 53.44-265.36 150.464-362.416 97.040-97.040 226.064-149.568 363.312-149.568 0.016 0 0.032 0 0.032 0h0.048c283.296 0 513.76 229.616 513.744 512.912 0.016 137.248-53.44 265.824-150.48 362.88-97.024 97.024-226.064 150.016-363.312 150.016zM512-33.808v-16 17.808c-0.016 0-0.016 0-0.032 0-128.688 0-249.68 49.216-340.672 140.192-90.976 91.008-141.088 211.536-141.088 340.24-0.016 128.704 50.080 249.472 141.088 340.48s212 140.992 340.72 140.992c128.704 0 249.68-50.176 340.688-141.168 91.008-91.008 141.072-212.016 141.072-340.72 0.016-265.632-209.776-481.808-481.776-481.824zM512 816c-98.304 0-190.704-38.288-260.208-107.808-69.504-69.504-107.792-161.904-107.792-260.192h32c0 89.728 34.96 174.112 98.416 237.584 63.456 63.456 147.84 98.416 237.584 98.416s174.128-34.96 237.6-98.432c63.44-63.472 98.4-147.84 98.4-237.568h32c0 98.272-38.288 190.688-107.776 260.208s-161.92 107.792-260.224 107.792zM492.112 443.312l-96 111.152-24.224-20.928 97.152-112.512c-3.2-6.544-5.072-13.712-5.040-21.232 0.064-12.816 5.088-24.848 14.208-33.872 9.040-8.976 21.056-13.92 33.792-13.92 12.912 0 24.992 5.040 34.096 14.208 18.608 18.8 18.48 49.248-0.304 67.872-14.064 13.936-36.080 16.912-53.68 9.232zM523.36 388.736c-6.016-6.048-16.56-6.096-22.624-0.096-3.024 3.008-4.72 7.024-4.736 11.296s1.632 8.288 4.656 11.328c3.008 3.072 7.040 4.736 11.344 4.736 4.256 0 8.256-1.648 11.264-4.656 6.272-6.192 6.304-16.336 0.096-22.608z" data-tags="basic_accelerator" />
<glyph unicode="&#xe689;" d="M944 448c0 238.208-193.792 432-432 432s-432-193.792-432-432c0-170.992 99.856-319.072 244.336-389.040l-95.648-95.648 22.624-22.624 104.608 104.608c48.448-18.848 101.056-29.296 156.080-29.296s107.632 10.448 156.080 29.296l104.608-104.608 22.624 22.624-95.648 95.648c144.48 69.968 244.336 218.048 244.336 389.040zM512 48c-220.56 0-400 179.44-400 400s179.44 400 400 400 400-179.44 400-400-179.44-400-400-400zM528 640h-32v-201.888l136.848-68.432 14.304 28.64-119.152 59.568zM-1.376 837.264l39.552-197.712 234.272 234.272-197.712 39.536-76.112-76.096zM207.552 854.176l-149.712-149.712-24.464 122.272 51.888 51.888 122.288-24.448zM751.552 873.824l234.288-234.288 39.552 197.712-76.112 76.112-197.728-39.536zM966.176 704.448l-149.712 149.712 122.288 24.464 51.888-51.888-24.464-122.288z" data-tags="basic_alarm" />
<glyph unicode="&#xe68a;" d="M308.592 175.328l-160 48-19.92-10.736-48-160 30.656-9.184 36.688 122.336c64.352-138.832 205.792-229.744 363.984-229.744 159.792 0 302.592 92.704 366 233.904l51.136-127.84 29.712 11.872-64 160-19.456 9.392-160-48 9.184-30.656 123.632 37.088c-56.416-124.352-180.112-207.216-320.208-213.136v703.376h128v32h-128v33.28c54.192 7.792 96 54.4 96 110.72 0 61.744-50.24 112-112 112s-112-50.256-112-112c0-56.32 41.808-102.928 96-110.72v-33.28h-128v-32h128v-703.376c-140.080 5.92-263.776 88.784-320.208 213.136l123.616-37.088 9.184 30.656zM432 848c0 44.112 35.888 80 80 80s80-35.888 80-80-35.888-80-80-80-80 35.888-80 80z" data-tags="basic_anchor" />
<glyph unicode="&#xe68b;" d="M667.312 315.312l-139.312 139.312v313.376h-32v-326.624l148.688-148.688zM64 464h64v-32h-64v32zM896 464h64v-32h-64v32zM496 64h32v-64h-32v64zM496 896h32v-64h-32v64zM858.416 816h133.584v32h-176l-16-16v-176h32v141.248l71.6-71.616c57.84-81.424 88.4-177.392 88.4-277.632 0-264.672-215.328-480-480-480s-480 215.328-480 480 215.328 480 480 480v32c-282.32 0-512-229.68-512-512s229.68-512 512-512 512 229.68 512 512c0 107.392-32.896 210.192-95.12 297.296l-70.464 70.704z" data-tags="basic_anticlockwise" />
<glyph unicode="&#xe68c;" d="M960 320h-2.224l-96 640h-699.552l-96-640h-2.224v-384h896v384zM189.776 928h644.432l91.2-608h-253.408v-16c0-88.224-71.776-160-160-160s-160 71.776-160 160v16h-253.424l91.2 608zM928-32h-832v320h224.656c8.16-98.4 90.864-176 191.344-176s183.184 77.6 191.344 176h224.656v-320zM192 480h640v-32h-640v32zM224 640h576v-32h-576v32zM256 800h512v-32h-512v32z" data-tags="basic_archive_full" />
<glyph unicode="&#xe68d;" d="M960 320h-2.224l-96 640h-699.552l-96-640h-2.224v-384h896v384zM189.776 928h644.432l91.2-608h-253.408v-16c0-88.224-71.776-160-160-160s-160 71.776-160 160v16h-253.424l91.2 608zM928-32h-832v320h224.656c8.16-98.4 90.864-176 191.344-176s183.184 77.6 191.344 176h224.656v-320z" data-tags="basic_archive" />
<glyph unicode="&#xe68e;" d="M512-64.016c136.752 0 265.312 53.264 362.016 149.984 96.72 96.704 149.984 225.28 149.984 362.032s-53.264 265.328-149.984 362.032c-96.704 96.72-225.264 149.984-362.016 149.984s-265.312-53.264-362.016-149.984c-96.72-96.704-149.984-225.28-149.984-362.032s53.264-265.328 149.984-362.032c96.704-96.72 225.264-149.984 362.016-149.984zM851.392 787.408c90.672-90.656 140.608-211.2 140.608-339.408 0-122.848-45.952-238.592-129.568-327.808l-678.24 678.24c89.216 83.616 204.944 129.584 327.808 129.584 128.208 0 248.736-49.936 339.392-140.608zM161.568 775.808l678.256-678.256c-89.216-83.616-204.96-129.584-327.808-129.584-128.208 0-248.736 49.936-339.392 140.608-90.688 90.672-140.624 211.216-140.624 339.424 0 122.848 45.952 238.592 129.568 327.808z" data-tags="basic_ban" />
<glyph unicode="&#xe68f;" d="M960 320h64v224h-64v96h-960v-416h960v96zM992 512v-160h-32v160h32zM928 256h-896v352h896v-352zM896 576h-832v-288h832v288zM864 320h-768v224h768v-224zM448 455.728v-96l134.304 57.568-12.608 29.408-89.696-38.432v96l-134.304-57.568 12.608-29.408z" data-tags="basic_battery_charge" />
<glyph unicode="&#xe690;" d="M960 320h64v224h-64v96h-960v-416h960v96zM992 512v-160h-32v160h32zM928 256h-896v352h896v-352zM236.496 576h-172.496v-288h244.496l-72 288zM96 544h115.504l56-224h-171.504v224z" data-tags="basic_battery_empty" />
<glyph unicode="&#xe691;" d="M960 320h64v224h-64v96h-960v-416h960v96zM992 512v-160h-32v160h32zM928 256h-896v352h896v-352zM896 576h-832v-288h832v288zM864 320h-768v224h768v-224z" data-tags="basic_battery_full" />
<glyph unicode="&#xe692;" d="M960 320h64v224h-64v96h-960v-416h960v96zM992 512v-160h-32v160h32zM928 256h-896v352h896v-352zM476.496 576h-412.496v-288h484.496l-72 288zM96 544h355.504l56-224h-411.504v224z" data-tags="basic_battery_half" />
<glyph unicode="&#xe693;" d="M626.512 952.608l-368-576 13.488-24.608h203.12l-106.576-395.84 28.416-13.536 416 576-12.96 25.376h-205.344l61.168 397.568-29.312 11.040zM560.192 530.432l15.808-18.432h192.704l-346.56-479.856 89.312 331.696-15.456 20.16h-194.784l311.44 487.488-52.464-341.056z" data-tags="basic_bolt" />
<glyph unicode="&#xe694;" d="M768 960h-768v-1024h768v1024zM32 928h96v-960h-96v960zM736-32h-576v960h576v-960zM224 736h448v-32h-448v32zM224 640h448v-32h-448v32zM1024 108.224v819.776h-160v-64h-64v-176h32v144h32v-723.776l80-160 80 160zM896 896h96v-780.224l-48-96-48 96v780.224z" data-tags="basic_book_pen" />
<glyph unicode="&#xe695;" d="M768 960h-768v-1024h768v1024zM32 928h96v-960h-96v960zM736-32h-576v960h576v-960zM224 736h448v-32h-448v32zM224 640h448v-32h-448v32zM1024 92.224v867.776h-160v-867.776l80-160 80 160zM992 928v-128h-96v128h96zM896 768h96v-668.224l-48-96-48 96v668.224z" data-tags="basic_book_pencil" />
<glyph unicode="&#xe696;" d="M864 960h-768v-1024h768v1024zM128 928h96v-960h-96v960zM832-32h-576v960h576v-960zM320 736h448v-32h-448v32zM320 640h448v-32h-448v32z" data-tags="basic_book" />
<glyph unicode="&#xe697;" d="M272-70.624l240 240 240-240v1030.624h-480v-1030.624zM304 928h416v-921.376l-208 208-208-208v921.376z" data-tags="basic_bookmark" />
<glyph unicode="&#xe698;" d="M0-64h1024v1024h-1024v-1024zM32 928h960v-960h-960v960zM304 832h-32v-144h-144v-32h144v-144h32v144h144v32h-144zM576 688h320v-32h-320v32zM404.688 363.312l-116.688-116.688-116.688 116.688-22.624-22.624 116.688-116.688-116.688-116.688 22.624-22.624 116.688 116.688 116.688-116.688 22.624 22.624-116.688 116.688 116.688 116.688zM576 288h320v-32h-320v32zM576 192h320v-32h-320v32z" data-tags="basic_calculator" />
<glyph unicode="&#xe699;" d="M848 880h-128v-64h-416v64h-128v-64h-176v-800h1024v800h-176v64zM752 848h64v-96h-64v96zM208 848h64v-96h-64v96zM32 48v608h960v-608h-960zM992 784v-96h-960v96h144v-64h128v64h416v-64h128v64h144zM144 400h192v192h-192v-192zM176 560h128v-128h-128v128zM144 112h192v192h-192v-192zM176 272h128v-128h-128v128zM688 400h192v192h-192v-192zM720 560h128v-128h-128v128zM688 112h192v192h-192v-192zM720 272h128v-128h-128v128zM416 400h192v192h-192v-192zM448 560h128v-128h-128v128zM416 112h192v192h-192v-192zM448 272h128v-128h-128v128z" data-tags="basic_calendar" />
<glyph unicode="&#xe69a;" d="M507.408 778.576l-52.208 107.168-460.128-238.576 301.12-652.432 214.96 99.792 200.304-100.144 317.632 668.704-460.128 238.576-61.552-123.088zM311.808 37.264l-274.88 595.568 403.872 209.424 48.576-99.712-254.848-509.696 240.016-120.016-162.736-75.568zM986.928 648.912l-290.368-611.296-419.088 209.536 305.568 611.184 403.888-209.424zM545.952 280.032l206.944 94.064-18.832 225.872-206.944-94.064 18.832-225.872zM705.952 552.032l13.168-158.128-145.056-65.936-13.168 158.128 145.056 65.936zM593.675 823.167l28.621-14.31-15.999-31.998-28.621 14.31 15.999 31.998zM97.681 584.838l-15.999 31.998 28.621 14.31 15.999-31.998-28.621-14.31zM686.317 72.814l-28.621 14.31 15.999 31.998 28.621-14.31-15.999-31.998z" data-tags="basic_cards_diamonds" />
<glyph unicode="&#xe69b;" d="M511.136 94.544l200.32-100.16 317.632 668.704-460.128 238.576-61.552-123.072-52.208 107.152-460.144-238.576 301.12-652.432 214.96 99.808zM583.040 858.336l403.872-209.424-290.368-611.296-419.072 209.536 305.568 611.184zM440.8 842.256l48.576-99.712-254.848-509.696 240.032-120.016-162.752-75.568-274.864 595.568 403.856 209.424zM593.675 823.167l28.621-14.31-15.999-31.998-28.621 14.31 15.999 31.998zM97.681 584.838l-15.999 31.998 28.621 14.31 15.999-31.998-28.621-14.31zM686.317 72.814l-28.621 14.31 15.999 31.998 28.621-14.31-15.999-31.998zM562.304 311.744l4.528-7.52 13.824-0.288c43.568 0 189.152 6.384 233.424 88.448 24.416 45.28 22.768 109.264-22.48 133.664-28 15.12-68.416 18.656-95.856 8.72-0.608 6.88-2.080 13.728-4.4 20.48-7.488 21.6-23.008 39.632-43.728 50.8-12.944 6.992-28.16 10.672-44.048 10.672-37.728 0-73.744-19.744-89.632-49.152-49.344-91.44 44.352-249.152 48.368-255.824zM542.080 552.384c10.128 18.752 35.968 32.352 61.472 32.352 10.592 0 20.576-2.352 28.864-6.832 13.648-7.36 23.824-19.12 28.672-33.104 4.816-13.872 3.68-28.512-3.152-41.216l28.16-15.184c9.856 18.272 35.168 20.24 45.616 20.24 15.76 0 32.080-3.904 44.72-10.72 29.024-15.664 24.064-63.36 9.52-90.336-35.312-65.36-170.288-71.136-200.752-71.584-26.352 46.816-75.024 157.232-43.12 216.384z" data-tags="basic_cards_hearts" />
<glyph unicode="&#xe69c;" d="M1024 688h-353.552c-5.648 37.488-32.368 128-158.448 128s-152.8-90.512-158.448-128h-353.552v-608h1024v608zM512 784c97.952 0 120.88-65.024 126.272-96h-252.64c5.216 30.976 27.792 96 126.368 96zM992 656v-160h-960v160h960zM448 464h128v-64h-128v64zM32 112v352h384v-96h192v96h384v-352h-960z" data-tags="basic_case" />
<glyph unicode="&#xe69d;" d="M512-64c123.952 0 240.464 48.272 328.096 135.936 87.648 87.616 135.904 204.128 135.904 328.064s-48.272 240.448-135.92 328.064c-83.824 83.888-194.144 131.568-312.080 135.552v64.384h80v32h-192v-32h80v-64.384c-117.936-3.968-228.256-51.664-312.096-135.536-87.632-87.616-135.904-204.128-135.904-328.080s48.272-240.448 135.904-328.064c87.632-87.664 204.144-135.936 328.096-135.936zM206.528 705.456c77.808 77.824 180.080 122.208 289.472 126.16v-47.616h32v47.616c109.392-3.968 211.664-48.336 289.472-126.16 77.808-77.792 122.192-180.064 126.144-289.456h-47.616v-32h47.616c-3.968-109.376-48.336-211.648-126.144-289.44-77.808-77.824-180.080-122.208-289.472-126.176v47.616h-32v-47.616c-109.392 3.968-211.664 48.336-289.472 126.176-77.808 77.792-122.176 180.064-126.144 289.44h47.616v32h-47.616c3.952 109.392 48.336 211.664 126.144 289.456zM244.328 690.267l45.261-45.248-22.624-22.63-45.261 45.248 22.624 22.63zM757.022 177.616l45.266-45.266-22.627-22.627-45.266 45.266 22.627 22.627zM779.654 690.265l22.627-22.627-45.254-45.254-22.627 22.627 45.254 45.254zM267.007 177.618l22.627-22.627-45.277-45.277-22.627 22.627 45.277 45.277zM512 336c35.296 0 64 28.704 64 64 0 29.728-20.48 54.576-48 61.728v162.272h-32v-162.272c-27.52-7.152-48-32-48-61.728 0-35.296 28.704-64 64-64zM512 432c17.648 0 32-14.352 32-32s-14.352-32-32-32-32 14.352-32 32 14.352 32 32 32z" data-tags="basic_chronometer" />
<glyph unicode="&#xe69e;" d="M272 240v-208h-64v-96h608v96h-48v208c0 50.368-82.256 110.064-218.88 200 136.624 89.936 218.88 149.632 218.88 200v224h48v96h-608v-96h64v-224c0-50.368 82.256-110.064 218.88-200-136.624-89.936-218.88-149.632-218.88-200zM784-32h-544v32h544v-32zM240 928h544v-32h-544v32zM304 640v224h432v-224c0-38.224-117.488-116.304-216-180.864-98.512 64.56-216 142.64-216 180.864zM520 420.864c98.512-64.56 216-142.64 216-180.864v-208h-432v208c0 38.224 117.488 116.304 216 180.864z" data-tags="basic_clessidre" />
<glyph unicode="&#xe69f;" d="M512 960c-136.752 0-265.328-53.28-362.016-150-96.72-96.672-149.984-225.248-149.984-362s53.264-265.328 149.984-362.016c96.688-96.72 225.248-149.984 362.016-149.984s265.328 53.28 362.032 150c96.704 96.672 149.968 225.248 149.968 362s-53.264 265.328-149.984 362.016c-96.688 96.72-225.264 149.984-362.016 149.984zM851.408 108.608c-90.672-90.672-211.2-140.608-339.408-140.608s-248.736 49.936-339.392 140.624c-90.688 90.64-140.608 211.168-140.608 339.376s49.936 248.736 140.608 339.392c90.64 90.672 211.168 140.608 339.392 140.608s248.752-49.952 339.408-140.624c90.672-90.64 140.592-211.168 140.592-339.376s-49.92-248.736-140.592-339.392zM528 768h-32v-326.624l148.688-148.688 22.624 22.624-139.312 139.312zM64 464h64v-32h-64v32zM896 464h64v-32h-64v32zM496 64h32v-64h-32v64zM496 896h32v-64h-32v64z" data-tags="basic_clock" />
<glyph unicode="&#xe6a0;" d="M667.312 315.312l-139.312 139.312v313.376h-32v-326.624l148.688-148.688zM64 464h64v-32h-64v32zM896 464h64v-32h-64v32zM496 64h32v-64h-32v64zM496 896h32v-64h-32v64zM512 960v-32c264.672 0 480-215.328 480-480s-215.328-480-480-480-480 215.328-480 480c0 100.24 30.56 196.208 88.4 277.632l71.6 71.616v-141.248h32v176l-16 16h-176v-32h133.504l-68.672-68.688-1.696-2.016c-62.24-87.104-95.136-189.904-95.136-297.296 0-282.32 229.68-512 512-512s512 229.68 512 512-229.68 512-512 512z" data-tags="basic_clockwise" />
<glyph unicode="&#xe6a1;" d="M895.648 431.2c-8.32 178.256-162.384 320.8-350.592 320.8-166.464 0-314.368-109.168-349.952-256h-13.792c-99.968 0-181.312-78.96-181.312-176 0-98.688 77.312-176 176-176h704c80.752 0 144 63.248 144 144 0 75.456-55.232 135.632-128.352 143.2zM880 176h-704c-80.752 0-144 63.248-144 144 0 79.408 66.992 144 149.328 144h39.872l2.512 12.96c26.912 138.56 165.056 243.040 321.344 243.040 175.872 0 318.944-136.368 318.944-304v-16h16c62.8 0 112-49.2 112-112s-49.2-112-112-112z" data-tags="basic_cloud" />
<glyph unicode="&#xe6a2;" d="M792 606c-24.656 0-48.96-3.936-72.128-11.568 15.104 31.168 23.12 65.552 23.12 100.56 0 127.376-103.632 231.008-231.008 231.008s-230.992-103.632-230.992-230.992c0-35.008 8.032-69.408 23.136-100.56-23.184 7.632-47.504 11.568-72.144 11.568-127.92 0-232-104.080-232-232s104.080-232 232-232c89.632 0 184.048 40.16 231.968 109.328-0.688-78.48-19.136-283.344-95.952-283.344v-32h288v32c-76.736 0-95.248 204.848-95.968 283.328 47.92-69.168 142.336-109.328 231.968-109.328 127.92 0 232 104.080 232 232s-104.080 232-232 232zM792 174c-111.584 0-232 68.048-232 178h-32v-96c0-25.984 2.272-212.176 65.328-288h-162.656c63.056 75.824 65.328 262.016 65.328 288v96h-32c0-109.952-120.416-178-232-178-110.288 0-200 89.712-200 200s89.712 200 200 200c38.112 0 75.344-10.944 107.648-31.632l20.816 23.84c-30.608 35.968-47.472 81.696-47.472 128.784 0 109.728 89.28 199.008 199.008 199.008s199.008-89.264 199.008-199.008c0-47.088-16.848-92.832-47.456-128.784l20.816-23.84c32.272 20.688 69.488 31.632 107.632 31.632 110.288 0 200-89.712 200-200s-89.712-200-200-200z" data-tags="basic_clubs" />
<glyph unicode="&#xe6a3;" d="M512-68.672c125.184 0 242.88 48.752 331.408 137.296 88.528 88.512 137.28 206.208 137.28 331.392s-48.752 242.88-137.28 331.392c-65.504 65.504-147.008 109.168-235.664 127.488 0.096 1.68 0.256 3.392 0.256 5.104 0 52.944-43.056 96-96 96s-96-43.056-96-96c0-1.712 0.16-3.408 0.256-5.12-88.672-18.32-170.16-61.984-235.664-127.488-88.528-88.512-137.264-206.208-137.264-331.392s48.752-242.88 137.28-331.392c88.496-88.528 206.192-137.28 331.392-137.28zM512 928c35.2 0 63.824-28.56 63.968-63.728-21.024 2.848-42.368 4.4-63.968 4.4s-42.944-1.552-63.968-4.4c0.144 35.168 28.768 63.728 63.968 63.728zM203.216 708.768c78.688 78.688 182.144 123.568 292.784 127.52v-68.288h32v68.288c110.64-3.968 214.080-48.832 292.784-127.52 78.688-78.688 123.552-182.144 127.504-292.768h-68.288v-32h68.288c-3.968-110.624-48.816-214.080-127.504-292.768-78.704-78.688-182.144-123.568-292.784-127.52v68.288h-32v-68.288c-110.64 3.968-214.096 48.832-292.784 127.52s-123.552 182.144-127.504 292.768h68.288v32h-68.288c3.952 110.624 48.816 214.080 127.504 292.768zM597.792 305.088l8.96 8.704 128 304-20.96 20.96-304-128-8.704-8.96-112-288 20.704-20.704 288 112zM586.48 348.144l-142.336 142.336 245.872 103.536-103.536-245.872zM422.016 467.344l141.328-141.328-231.264-89.936 89.936 231.264z" data-tags="basic_compass" />
<glyph unicode="&#xe6a4;" d="M784 528v160.608c142.256 10.336 144 157.856 144 159.392v16h-144v96h-544v-96h-144v-16c0-1.536 1.744-149.056 144-159.392v-160.608c0-81.904 104.528-139.776 256-143.632v-416.368h-176v-32h384v32h-176v416.368c151.472 3.856 256 61.728 256 143.632zM894.752 832c-4.368-32.528-23.92-103.408-110.752-111.216v111.216h110.752zM129.328 832h110.672v-111.216c-86.384 7.84-106.176 78.688-110.672 111.216zM272 528v400h480v-400c0-55.664-82.432-112-240-112s-240 56.336-240 112z" data-tags="basic_cup" />
<glyph unicode="&#xe6a5;" d="M528-74.864l387.92 522.864-387.92 522.864-387.92-522.864 387.92-522.864zM876.080 448l-348.080-469.136-348.080 469.136 348.080 469.136 348.080-469.136z" data-tags="basic_diamonds" />
<glyph unicode="&#xe6a6;" d="M0 128h496v-160h-144v-32h320v32h-144v160h496v688h-1024v-688zM992 160h-960v96h960v-96zM992 784v-496h-960v496h960z" data-tags="basic_display" />
<glyph unicode="&#xe6a7;" d="M496 544v-473.376l-100.688 100.688-22.624-24.976 128-130.336h22.624l128 130.336-22.624 23.808-100.688-99.52v473.376zM384 304h-352v544h960v-544h-352v-32h384v608h-1024v-608h384z" data-tags="basic_download" />
<glyph unicode="&#xe6a8;" d="M512 169.376l240-240v1030.624h-480v-1030.624l240 240zM304 928h416v-921.376l-208 208-208-208v921.376zM676.688 715.312l-196.688-196.688-100.688 100.688-22.624-24.976 112-114.336h22.624l208 210.336z" data-tags="basic_elaboration_bookmark_checck" />
<glyph unicode="&#xe6a9;" d="M368 624h288v-32h-288v32zM512 169.376l240-240v1030.624h-480v-1030.624l240 240zM304 928h416v-921.376l-208 208-208-208v921.376z" data-tags="basic_elaboration_bookmark_minus" />
<glyph unicode="&#xe6aa;" d="M528 464v128h128v32h-128v128h-32v-128h-128v-32h128v-128zM512 169.376l240-240v1030.624h-480v-1030.624l240 240zM304 928h416v-921.376l-208 208-208-208v921.376z" data-tags="basic_elaboration_bookmark_plus" />
<glyph unicode="&#xe6ab;" d="M512 169.376l240-240v1030.624h-480v-1030.624l240 240zM304 928h416v-921.376l-208 208-208-208v921.376zM612.688 484.688l22.624 22.624-100.688 100.688 100.688 100.688-22.624 22.624-100.688-100.688-100.688 100.688-22.624-22.624 100.688-100.688-100.688-100.688 22.624-22.624 100.688 100.688z" data-tags="basic_elaboration_bookmark_remove" />
<glyph unicode="&#xe6ac;" d="M960 320h-2.224l-96 640h-699.552l-96-640h-2.224v-384h896v384zM189.776 928h644.432l91.2-608h-253.408v-16c0-88.224-71.776-160-160-160s-160 71.776-160 160v16h-253.424l91.2 608zM928-32h-832v320h224.656c8.16-98.4 90.864-176 191.344-176s183.184 77.6 191.344 176h224.656v-320zM491.312 480l208 210.336-22.624 23.808-196.688-196.112-100.688 100.976-22.624-24.8 112-114.208z" data-tags="basic_elaboration_briefcase_check" />
<glyph unicode="&#xe6ad;" d="M960 320h-2.224l-96 640h-699.552l-96-640h-2.224v-384h896v384zM189.776 928h644.432l91.2-608h-253.408v-16c0-88.224-71.776-160-160-160s-160 71.776-160 160v16h-253.424l91.2 608zM928-32h-832v320h224.656c8.16-98.4 90.864-176 191.344-176s183.184 77.6 191.344 176h224.656v-320zM523.312 416l128 130.336-22.624 23.808-100.688-99.52v281.376h-32v-281.376l-100.688 100.688-22.624-24.976 128-130.336z" data-tags="basic_elaboration_briefcase_download" />
<glyph unicode="&#xe6ae;" d="M960 320h-2.224l-96 640h-699.552l-96-640h-2.224v-384h896v384zM189.776 928h644.432l91.2-608h-253.408v-16c0-88.224-71.776-160-160-160s-160 71.776-160 160v16h-253.424l91.2 608zM928-32h-832v320h224.672c8.144-98.4 90.848-176 191.328-176s183.184 77.6 191.328 176h224.672v-320zM448 592h252.96l-50.32 80 50.32 80h-252.96v32h-32v-368h32v176zM643.040 720l-30.192-48 30.192-48h-195.040v96h195.040z" data-tags="basic_elaboration_briefcase_flagged" />
<glyph unicode="&#xe6af;" d="M960 320h-2.224l-96 640h-699.552l-96-640h-2.224v-384h896v384zM189.776 928h644.432l91.2-608h-253.408v-16c0-88.224-71.776-160-160-160s-160 71.776-160 160v16h-253.424l91.2 608zM928-32h-832v320h224.656c8.16-98.4 90.864-176 191.344-176s183.184 77.6 191.344 176h224.656v-320zM368 592h288v-32h-288v32z" data-tags="basic_elaboration_briefcase_minus" />
<glyph unicode="&#xe6b0;" d="M960 320h-2.224l-96 640h-699.552l-96-640h-2.224v-384h896v384zM189.776 928h644.432l91.2-608h-253.408v-16c0-88.224-71.776-160-160-160s-160 71.776-160 160v16h-253.424l91.2 608zM928-32h-832v320h224.672c8.144-98.4 90.848-176 191.328-176s183.184 77.6 191.328 176h224.672v-320zM496 432h32v128h128v32h-128v128h-32v-128h-128v-32h128z" data-tags="basic_elaboration_briefcase_plus" />
<glyph unicode="&#xe6b1;" d="M960 320h-2.224l-96 640h-699.552l-96-640h-2.224v-384h896v384zM189.776 928h644.432l91.2-608h-253.408v-16c0-88.224-71.776-160-160-160s-160 71.776-160 160v16h-253.424l91.2 608zM928-32h-832v320h224.672c8.144-98.4 90.848-176 191.328-176s183.184 77.6 191.328 176h224.672v-320zM512 416h32l-28.8-38.4 27.2-19.184 49.6 64v19.184l-49.6 64-26.4-19.2 28-38.4h-32c-63.072 0-112 68.816-112 128h-32c0-75.536 61.584-160 144-160zM540.8 665.6l-28.8 38.4h32c63.072 0 112-68.816 112-128h32c0 75.536-61.584 160-144 160h-32l28.8 38.4-27.2 19.2-49.6-64v-19.2l49.6-64 27.2 19.2z" data-tags="basic_elaboration_briefcase_refresh" />
<glyph unicode="&#xe6b2;" d="M960 320h-2.224l-96 640h-699.552l-96-640h-2.224v-384h896v384zM189.776 928h644.432l91.2-608h-253.408v-16c0-88.224-71.776-160-160-160s-160 71.776-160 160v16h-253.424l91.2 608zM928-32h-832v320h224.656c8.16-98.4 90.864-176 191.344-176s183.184 77.6 191.344 176h224.656v-320zM411.312 452.688l100.688 100.688 100.688-100.688 22.624 22.624-100.688 100.688 100.688 100.688-22.624 22.624-100.688-100.688-100.688 100.688-22.624-22.624 100.688-100.688-100.688-100.688z" data-tags="basic_elaboration_briefcase_remove" />
<glyph unicode="&#xe6b3;" d="M960 320h-2.224l-96 640h-699.552l-96-640h-2.224v-384h896v384zM189.776 928h644.432l91.2-608h-253.408v-16c0-88.224-71.776-160-160-160s-160 71.776-160 160v16h-253.424l91.2 608zM928-32h-832v320h224.672c8.144-98.4 90.848-176 191.328-176s183.184 77.6 191.328 176h224.672v-320zM464 512c25.12 0 48.256 8.4 66.944 22.416l113.744-113.728 22.624 22.624-113.744 113.728c14.016 18.704 22.432 41.856 22.432 66.96 0 61.744-50.24 112-112 112s-112-50.256-112-112 50.24-112 112-112zM464 704c44.112 0 80-35.888 80-80s-35.888-80-80-80-80 35.888-80 80 35.888 80 80 80z" data-tags="basic_elaboration_briefcase_search" />
<glyph unicode="&#xe6b4;" d="M960 320h-2.224l-96 640h-699.552l-96-640h-2.224v-384h896v384zM189.776 928h644.432l91.2-608h-253.408v-16c0-88.224-71.776-160-160-160s-160 71.776-160 160v16h-253.424l91.2 608zM928-32h-832v320h224.672c8.144-98.4 90.848-176 191.328-176s183.184 77.6 191.328 176h224.672v-320zM398.688 468.64c-1.952-6.432 0.336-13.408 5.712-17.44s12.72-4.304 18.352-0.592l89.104 58.192 86.208-58.064c2.704-1.824 5.824-2.736 8.944-2.736 3.28 0 6.56 0.992 9.344 3.008 5.424 3.904 7.856 10.8 6.064 17.248l-27.92 100.848 86.368 57.584c5.872 3.904 8.48 11.2 6.432 17.952-2.016 6.752-8.256 11.36-15.296 11.36h-100.912l-44.096 117.632c-2.352 6.32-8.704 11.040-15.168 10.368-6.736-0.080-12.704-4.368-14.928-10.736l-40.864-117.264h-104.032c-7.040 0-13.28-4.608-15.312-11.36-2.048-6.752 0.576-14.048 6.432-17.952l86.112-57.408-30.544-100.64zM404.848 624h62.56c6.8 0 12.864 4.32 15.104 10.736l30.032 86.224 32.464-86.576c2.352-6.24 8.32-10.384 14.992-10.384h59.152l-52.032-34.688c-5.744-3.824-8.384-10.928-6.544-17.584l19.456-70.272-59.088 39.792c-5.328 3.616-12.288 3.664-17.68 0.128l-61.152-39.936 21.216 69.904c2.048 6.752-0.576 14.048-6.432 17.952l-52.048 34.704z" data-tags="basic_elaboration_briefcase_star" />
<glyph unicode="&#xe6b5;" d="M960 320h-2.224l-96 640h-699.552l-96-640h-2.224v-384h896v384zM189.776 928h644.432l91.2-608h-253.408v-16c0-88.224-71.776-160-160-160s-160 71.776-160 160v16h-253.424l91.2 608zM928-32h-832v320h224.656c8.16-98.4 90.864-176 191.344-176s183.184 77.6 191.344 176h224.656v-320zM496 697.376v-281.376h32v281.376l100.672-100.688 22.608 24.976-128 130.336h-22.624l-128-130.336 22.64-23.808z" data-tags="basic_elaboration_briefcase_upload" />
<glyph unicode="&#xe6b6;" d="M0 32h1024v832h-1024v-832zM32 64v640h960v-640h-960zM992 832v-96h-960v96h960zM96 800h64v-32h-64v32zM224 800h64v-32h-64v32zM352 800h64v-32h-64v32zM480 310.624l-100.688 100.688-22.624-24.976 112-114.336h22.624l208 210.336-22.624 23.808z" data-tags="basic_elaboration_browser_check" />
<glyph unicode="&#xe6b7;" d="M0 32h1024v832h-1024v-832zM32 64v640h960v-640h-960zM992 832v-96h-960v96h960zM96 800h64v-32h-64v32zM224 800h64v-32h-64v32zM352 800h64v-32h-64v32zM528 262.624v281.376h-32v-281.376l-100.688 100.688-22.624-24.976 128-130.336h22.624l128 130.336-22.624 23.808z" data-tags="basic_elaboration_browser_download" />
<glyph unicode="&#xe6b8;" d="M0 32h1024v832h-1024v-832zM32 64v640h960v-640h-960zM992 832v-96h-960v96h960zM96 800h64v-32h-64v32zM224 800h64v-32h-64v32zM352 800h64v-32h-64v32zM368 384h288v-32h-288v32z" data-tags="basic_elaboration_browser_minus" />
<glyph unicode="&#xe6b9;" d="M0 32h1024v832h-1024v-832zM32 64v640h960v-640h-960zM992 832v-96h-960v96h960zM96 800h64v-32h-64v32zM224 800h64v-32h-64v32zM352 800h64v-32h-64v32zM528 512h-32v-128h-128v-32h128v-128h32v128h128v32h-128z" data-tags="basic_elaboration_browser_plus" />
<glyph unicode="&#xe6ba;" d="M0 32h1024v832h-1024v-832zM32 64v640h960v-640h-960zM992 832v-96h-960v96h960zM515.2 278.4l28.8-38.4h-32c-63.072 0-112 68.8-112 128h-32c0-75.536 61.584-160 144-160h32l-28.8-38.4 27.2-19.2 49.6 64v19.2l-49.6 64-27.2-19.2zM544 528h-32l28.8 38.4-27.2 19.2-49.6-64v-19.2l49.6-64 26.4 19.2-28 38.4h32c63.072 0 112-68.8 112-128h32c0 75.536-61.584 160-144 160zM96 800h64v-32h-64v32zM224 800h64v-32h-64v32zM352 800h64v-32h-64v32z" data-tags="basic_elaboration_browser_refresh" />
<glyph unicode="&#xe6bb;" d="M0 32h1024v832h-1024v-832zM32 64v640h960v-640h-960zM992 832v-96h-960v96h960zM96 800h64v-32h-64v32zM224 800h64v-32h-64v32zM352 800h64v-32h-64v32zM612.688 491.312l-100.688-100.688-100.688 100.688-22.624-22.624 100.688-100.688-100.688-100.688 22.624-22.624 100.688 100.688 100.688-100.688 22.624 22.624-100.688 100.688 100.688 100.688z" data-tags="basic_elaboration_browser_remove" />
<glyph unicode="&#xe6bc;" d="M0 32h1024v832h-1024v-832zM32 64v640h960v-640h-960zM992 832v-96h-960v96h960zM96 800h64v-32h-64v32zM224 800h64v-32h-64v32zM352 800h64v-32h-64v32zM576 432c0 61.76-50.24 112-112 112s-112-50.24-112-112 50.24-112 112-112c25.12 0 48.256 8.416 66.96 22.416l113.728-113.728 22.624 22.624-113.728 113.728c14 18.704 22.416 41.84 22.416 66.96zM384 432c0 44.112 35.888 80 80 80s80-35.888 80-80-35.888-80-80-80-80 35.888-80 80z" data-tags="basic_elaboration_browser_search" />
<glyph unicode="&#xe6bd;" d="M0 32h1024v832h-1024v-832zM32 64v640h960v-640h-960zM992 832v-96h-960v96h960zM672 432h-100.912l-44.112 117.616c-2.352 6.32-9.088 10.752-15.168 10.384-6.736-0.080-12.704-4.368-14.928-10.736l-40.848-117.264h-104.032c-7.040 0-13.264-4.624-15.312-11.36s0.576-14.032 6.432-17.952l86.112-57.408-30.544-100.64c-1.952-6.432 0.336-13.408 5.712-17.44 5.392-4.048 12.704-4.272 18.336-0.608l89.104 58.192 86.208-58.064c2.704-1.824 5.824-2.72 8.944-2.72 3.28 0 6.56 1.008 9.344 3.008 5.44 3.92 7.856 10.8 6.080 17.248l-27.904 100.848 86.352 57.584c5.856 3.92 8.48 11.2 6.432 17.952-2.032 6.736-8.256 11.36-15.296 11.36zM567.12 365.312c-5.744-3.84-8.384-10.928-6.544-17.584l19.456-70.272-59.088 39.808c-5.344 3.584-12.32 3.648-17.68 0.128l-61.152-39.952 21.216 69.904c2.048 6.752-0.56 14.048-6.432 17.968l-52.048 34.688h62.56c6.816 0 12.88 4.304 15.104 10.736l30.032 86.224 32.464-86.576c2.352-6.24 8.32-10.384 14.992-10.384h59.152l-52.032-34.688zM96 800h64v-32h-64v32zM224 800h64v-32h-64v32zM352 800h64v-32h-64v32z" data-tags="basic_elaboration_browser_star" />
<glyph unicode="&#xe6be;" d="M0 32h1024v832h-1024v-832zM32 64v640h960v-640h-960zM992 832v-96h-960v96h960zM96 800h64v-32h-64v32zM224 800h64v-32h-64v32zM352 800h64v-32h-64v32zM500.656 544l-128-130.336 22.64-23.808 100.704 99.52v-281.376h32v281.376l100.672-100.688 22.608 24.976-128 130.336z" data-tags="basic_elaboration_browser_upload" />
<glyph unicode="&#xe6bf;" d="M480 294.624l-100.688 100.688-22.624-24.976 112-114.336h22.624l208 210.336-22.624 23.808zM848 880h-128v-64h-416v64h-128v-64h-176v-800h1024v800h-176v64zM752 848h64v-96h-64v96zM208 848h64v-96h-64v96zM32 48v608h960v-608h-960zM992 784v-96h-960v96h144v-64h128v64h416v-64h128v64h144z" data-tags="basic_elaboration_calendar_check" />
<glyph unicode="&#xe6c0;" d="M848 880h-128v-64h-416v64h-128v-64h-176v-800h1024v800h-176v64zM752 848h64v-96h-64v96zM208 848h64v-96h-64v96zM32 48v608h960v-608h-960zM992 784v-96h-960v96h144v-64h128v64h416v-64h128v64h144zM639.072 366.176c-7.472 56.672-59.6 97.824-127.072 97.824-59.040 0-109.52-48.352-124.752-97.296-34.128-7.136-51.248-42.144-51.248-62.704 0-40.672 23.328-64 64-64h224c40.080 0 64 23.92 64 64 0 20.080-16.336 53.968-48.928 62.176zM624 272h-224c-23.024 0-32 8.976-32 32 0 7.712 9.632 32 32 32h13.184l2.512 12.96c7.616 39.2 50.432 83.040 96.304 83.040 46.528 0 96-28.032 96-80v-16h16c22.368 0 32-24.288 32-32 0-22.128-9.872-32-32-32z" data-tags="basic_elaboration_calendar_cloud" />
<glyph unicode="&#xe6c1;" d="M528 246.624v281.376h-32v-281.376l-100.688 100.688-22.624-24.976 128-130.336h22.624l128 130.336-22.624 23.808zM848 880h-128v-64h-416v64h-128v-64h-176v-800h1024v800h-176v64zM752 848h64v-96h-64v96zM208 848h64v-96h-64v96zM32 48v608h960v-608h-960zM992 784v-96h-960v96h144v-64h128v64h416v-64h128v64h144z" data-tags="basic_elaboration_calendar_download" />
<glyph unicode="&#xe6c2;" d="M848 880h-128v-64h-416v64h-128v-64h-176v-800h1024v800h-176v64zM752 848h64v-96h-64v96zM208 848h64v-96h-64v96zM32 48v608h960v-608h-960zM992 784v-96h-960v96h144v-64h128v64h416v-64h128v64h144z" data-tags="basic_elaboration_calendar_empty" />
<glyph unicode="&#xe6c3;" d="M848 880h-128v-64h-416v64h-128v-64h-176v-800h1024v800h-176v64zM752 848h64v-96h-64v96zM208 848h64v-96h-64v96zM32 48v608h960v-608h-960zM992 784v-96h-960v96h144v-64h128v64h416v-64h128v64h144zM448 496v32h-32v-368h32v176h252.96l-50.32 80 50.32 80h-252.96zM643.040 368h-195.040v96h195.040l-30.192-48 30.192-48z" data-tags="basic_elaboration_calendar_flagged" />
<glyph unicode="&#xe6c4;" d="M848 880h-128v-64h-416v64h-128v-64h-176v-800h1024v800h-176v64zM752 848h64v-96h-64v96zM208 848h64v-96h-64v96zM32 48v608h960v-608h-960zM992 784v-96h-960v96h144v-64h128v64h416v-64h128v64h144zM592 496c-33.36 0-62.784-17.088-80-42.992-17.216 25.904-46.64 42.992-80 42.992-54.736 0-96-41.28-96-96 0-114.944 161.6-202.448 168.464-206.112l7.536-4.016 7.536 4.016c6.864 3.664 168.464 91.168 168.464 206.112 0 54.72-41.264 96-96 96zM512 226.4c-30.624 18.016-144 90.352-144 173.6 0 37.088 26.928 64 64 64 35.296 0 64-28.704 64-64h32c0 35.296 28.704 64 64 64 37.072 0 64-26.912 64-64 0-83.248-113.376-155.584-144-173.6z" data-tags="basic_elaboration_calendar_heart" />
<glyph unicode="&#xe6c5;" d="M368 368h288v-32h-288v32zM848 880h-128v-64h-416v64h-128v-64h-176v-800h1024v800h-176v64zM752 848h64v-96h-64v96zM208 848h64v-96h-64v96zM32 48v608h960v-608h-960zM992 784v-96h-960v96h144v-64h128v64h416v-64h128v64h144z" data-tags="basic_elaboration_calendar_minus" />
<glyph unicode="&#xe6c6;" d="M848 880h-128v-64h-416v64h-128v-64h-176v-800h1024v800h-176v64zM752 848h64v-96h-64v96zM208 848h64v-96h-64v96zM32 48v608h960v-608h-960zM992 784v-96h-960v96h144v-64h128v64h416v-64h128v64h144zM532.688 468.688l100.688-100.688h-281.376v-32h281.376l-100.688-100.688 24.976-22.624 130.336 128v22.624l-130.336 128z" data-tags="basic_elaboration_calendar_next" />
<glyph unicode="&#xe6c7;" d="M848 880h-128v-64h-416v64h-128v-64h-176v-800h1024v800h-176v64zM752 848h64v-96h-64v96zM208 848h64v-96h-64v96zM32 48v608h960v-608h-960zM992 784v-96h-960v96h144v-64h128v64h416v-64h128v64h144zM511.968 512c-42.736 0-82.912-16.64-113.136-46.864-30.208-30.208-46.832-70.4-46.832-113.136s16.624-82.928 46.832-113.136 70.4-46.864 113.136-46.864h0.032c88.224 0 160 71.776 160 160 0 42.752-16.624 82.944-46.848 113.136-30.208 30.224-70.384 46.864-113.184 46.864zM511.968 224c-34.192 0-66.336 13.312-90.496 37.488-24.176 24.176-37.472 56.32-37.472 90.512 0 28.8 9.536 56.080 26.944 78.432l179.408-179.424c-21.68-16.848-48.848-27.008-78.384-27.008zM612.992 273.648l-179.424 179.392c22.352 17.424 49.632 26.96 78.464 26.96 34.192 0 66.336-13.312 90.496-37.488s37.472-56.304 37.472-90.512c0-29.536-10.16-56.672-27.008-78.352z" data-tags="basic_elaboration_calendar_noaccess" />
<glyph unicode="&#xe6c8;" d="M848 880h-128v-64h-416v64h-128v-64h-176v-800h1024v800h-176v64zM752 848h64v-96h-64v96zM208 848h64v-96h-64v96zM32 48v608h960v-608h-960zM992 784v-96h-960v96h144v-64h128v64h416v-64h128v64h144zM353.264 279.888l-21.664-108.288 108.288 21.664 254.736 254.736-86.624 86.624-254.736-254.736zM424.112 222.736l-51.712-10.336 10.336 51.712 177.264 177.264 41.376-41.376-177.264-177.264zM624 422.624l-41.376 41.376 25.376 25.376 41.376-41.376-25.376-25.376z" data-tags="basic_elaboration_calendar_pencil" />
<glyph unicode="&#xe6c9;" d="M848 880h-128v-64h-416v64h-128v-64h-176v-800h1024v800h-176v64zM752 848h64v-96h-64v96zM208 848h64v-96h-64v96zM32 48v608h960v-608h-960zM992 784v-96h-960v96h144v-64h128v64h416v-64h128v64h144zM528 496h-32v-128h-128v-32h128v-128h32v128h128v32h-128z" data-tags="basic_elaboration_calendar_plus" />
<glyph unicode="&#xe6ca;" d="M848 880h-128v-64h-416v64h-128v-64h-176v-800h1024v800h-176v64zM752 848h64v-96h-64v96zM208 848h64v-96h-64v96zM32 48v608h960v-608h-960zM992 784v-96h-960v96h144v-64h128v64h416v-64h128v64h144zM491.328 468.688l-24.976 22.624-130.352-128v-22.624l130.352-128 23.808 22.624-99.52 100.688h281.36v32h-281.36z" data-tags="basic_elaboration_calendar_previous" />
<glyph unicode="&#xe6cb;" d="M515.2 262.4l28.8-38.4h-32c-63.072 0-112 68.8-112 128h-32c0-75.536 61.584-160 144-160h32l-28.8-38.4 27.2-19.2 49.6 64v19.2l-49.6 64-27.2-19.2zM544 512h-32l28.8 38.4-27.2 19.2-49.6-64v-19.2l49.6-64 26.4 19.2-28 38.4h32c63.072 0 112-68.8 112-128h32c0 75.536-61.584 160-144 160zM848 880h-128v-64h-416v64h-128v-64h-176v-800h1024v800h-176v64zM752 848h64v-96h-64v96zM208 848h64v-96h-64v96zM32 48v608h960v-608h-960zM992 784v-96h-960v96h144v-64h128v64h416v-64h128v64h144z" data-tags="basic_elaboration_calendar_refresh" />
<glyph unicode="&#xe6cc;" d="M612.688 475.312l-100.688-100.688-100.688 100.688-22.624-22.624 100.688-100.688-100.688-100.688 22.624-22.624 100.688 100.688 100.688-100.688 22.624 22.624-100.688 100.688 100.688 100.688zM848 880h-128v-64h-416v64h-128v-64h-176v-800h1024v800h-176v64zM752 848h64v-96h-64v96zM208 848h64v-96h-64v96zM32 48v608h960v-608h-960zM992 784v-96h-960v96h144v-64h128v64h416v-64h128v64h144z" data-tags="basic_elaboration_calendar_remove" />
<glyph unicode="&#xe6cd;" d="M576 400c0 61.76-50.256 112-112 112s-112-50.24-112-112 50.256-112 112-112c25.104 0 48.256 8.416 66.96 22.432l113.728-113.744 22.624 22.624-113.728 113.744c14.016 18.688 22.416 41.824 22.416 66.944zM384 400c0 44.112 35.888 80 80 80s80-35.888 80-80-35.888-80-80-80-80 35.888-80 80zM848 880h-128v-64h-416v64h-128v-64h-176v-800h1024v800h-176v64zM752 848h64v-96h-64v96zM208 848h64v-96h-64v96zM32 48v608h960v-608h-960zM992 784v-96h-960v96h144v-64h128v64h416v-64h128v64h144z" data-tags="basic_elaboration_calendar_search" />
<glyph unicode="&#xe6ce;" d="M848 880h-128v-64h-416v64h-128v-64h-176v-800h1024v800h-176v64zM752 848h64v-96h-64v96zM208 848h64v-96h-64v96zM32 48v608h960v-608h-960zM992 784v-96h-960v96h144v-64h128v64h416v-64h128v64h144zM672 400h-100.912l-44.112 117.616c-2.368 6.32-8.176 10.832-15.168 10.384-6.736-0.080-12.704-4.368-14.928-10.736l-40.848-117.264h-104.032c-7.040 0-13.264-4.624-15.312-11.36s0.576-14.032 6.432-17.952l86.112-57.408-30.544-100.64c-1.952-6.432 0.336-13.408 5.712-17.44 5.392-4.064 12.704-4.288 18.336-0.608l89.104 58.192 86.208-58.064c2.704-1.824 5.824-2.72 8.944-2.72 3.28 0 6.56 1.008 9.344 3.008 5.44 3.92 7.856 10.8 6.080 17.248l-27.904 100.848 86.352 57.584c5.856 3.92 8.48 11.2 6.432 17.952-2.032 6.736-8.256 11.36-15.296 11.36zM567.12 333.312c-5.744-3.84-8.384-10.928-6.544-17.584l19.456-70.272-59.088 39.808c-5.344 3.584-12.32 3.648-17.68 0.128l-61.152-39.952 21.216 69.904c2.048 6.752-0.56 14.048-6.432 17.968l-52.048 34.688h62.56c6.816 0 12.88 4.304 15.104 10.736l30.032 86.224 32.464-86.576c2.352-6.24 8.32-10.384 14.992-10.384h59.152l-52.032-34.688z" data-tags="basic_elaboration_calendar_star" />
<glyph unicode="&#xe6cf;" d="M500.656 528l-128-130.336 22.64-23.808 100.704 99.52v-281.376h32v281.376l100.672-100.688 22.624 24.976-128.016 130.336zM848 880h-128v-64h-416v64h-128v-64h-176v-800h1024v800h-176v64zM752 848h64v-96h-64v96zM208 848h64v-96h-64v96zM32 48v608h960v-608h-960zM992 784v-96h-960v96h144v-64h128v64h416v-64h128v64h144z" data-tags="basic_elaboration_calendar_upload" />
<glyph unicode="&#xe6d0;" d="M480 326.624l-100.688 100.688-22.624-24.976 112-114.336h22.624l208 210.336-22.624 23.808zM895.648 431.2c-8.32 178.24-162.384 320.8-350.592 320.8-166.464 0-314.368-109.168-349.952-256h-13.792c-99.968 0-181.312-78.96-181.312-176 0-98.688 77.312-176 176-176h704c80.752 0 144 63.248 144 144 0 75.456-55.232 135.632-128.352 143.2zM880 176h-704c-80.752 0-144 63.248-144 144 0 79.392 66.992 144 149.328 144h39.872l2.512 12.96c26.912 138.544 165.056 243.040 321.344 243.040 175.872 0 318.944-136.368 318.944-304v-16h16c62.8 0 112-49.2 112-112s-49.2-112-112-112z" data-tags="basic_elaboration_cloud_check" />
<glyph unicode="&#xe6d1;" d="M895.648 431.2c-8.32 178.24-162.384 320.8-350.592 320.8-166.464 0-314.368-109.168-349.952-256h-13.792c-99.968 0-181.312-78.96-181.312-176 0-98.688 77.312-176 176-176h704c80.752 0 144 63.248 144 144 0 75.456-55.232 135.632-128.352 143.2zM880 176h-704c-80.752 0-144 63.248-144 144 0 79.392 66.992 144 149.328 144h39.872l2.512 12.96c26.912 138.544 165.056 243.040 321.344 243.040 175.872 0 318.944-136.368 318.944-304v-16h16c62.8 0 112-49.2 112-112s-49.2-112-112-112zM528 278.624v281.376h-32v-281.376l-100.688 100.688-22.624-24.976 128-130.336h22.624l128 130.336-22.624 23.808z" data-tags="basic_elaboration_cloud_download" />
<glyph unicode="&#xe6d2;" d="M895.648 431.2c-8.32 178.24-162.384 320.8-350.592 320.8-166.464 0-314.368-109.168-349.952-256h-13.792c-99.968 0-181.312-78.96-181.312-176 0-98.688 77.312-176 176-176h704c80.752 0 144 63.248 144 144 0 75.456-55.232 135.632-128.352 143.2zM880 176h-704c-80.752 0-144 63.248-144 144 0 79.392 66.992 144 149.328 144h39.872l2.512 12.96c26.912 138.544 165.056 243.040 321.344 243.040 175.872 0 318.944-136.368 318.944-304v-16h16c62.8 0 112-49.2 112-112s-49.2-112-112-112zM368 432h288v-32h-288v32z" data-tags="basic_elaboration_cloud_minus" />
</font>
</defs>
</svg>
